<?xml version="1.0" standalone="no"?>
<!DOCTYPE svg PUBLIC "-//W3C//DTD SVG 1.1//EN" "http://www.w3.org/Graphics/SVG/1.1/DTD/svg11.dtd" >
<svg xmlns="http://www.w3.org/2000/svg" xmlns:xlink="http://www.w3.org/1999/xlink" version="1.1">
<metadata>
Created by FontForge 20201107 at Wed Jul 17 16:26:11 2024
 By 
Copyright (c) 1989, 1995, 2002 Adobe Systems Incorporated.  All Rights Reserved. (c) 1981, 1995, 2002 Heidelberger Druckmaschinen AG. All rights reserved.
</metadata>
<defs>
<font id="AvenirLTStd-MediumOblique" horiz-adv-x="1138" >
  <font-face 
    font-family="Avenir LT Std 65 Medium"
    font-weight="600"
    font-style="oblique"
    font-stretch="normal"
    units-per-em="2048"
    panose-1="2 11 6 3 2 2 3 2 2 4"
    ascent="1638"
    descent="-410"
    x-height="971"
    cap-height="1450"
    bbox="-340 -578 2173 1892"
    underline-thickness="102"
    underline-position="-204"
    slope="-8"
    unicode-range="U+0020-FB02"
  />
<missing-glyph horiz-adv-x="1224" 
d="M201 0v1434h1024v-1434h-1024zM713 809l348 522h-696zM774 717l348 -522v1044zM365 102h696l-348 523zM303 1239v-1044l348 522z" />
    <glyph glyph-name="fi" unicode="fi" 
d="M799 0l137 971h184l-137 -971h-184zM942 1317q7 55 53.5 95t102.5 40q55 0 88.5 -39.5t25.5 -95.5t-53 -95.5t-100 -39.5q-56 0 -90 40t-27 95zM211 0l115 811h-209l22 160h209l31 217q27 198 117 291.5t268 93.5q78 0 135 -14l-43 -164q-42 18 -102 18
q-95 0 -134.5 -53.5t-54.5 -165.5l-30 -223h219l-23 -160h-221l-115 -811h-184z" />
    <glyph glyph-name="fl" unicode="fl" 
d="M801 0l217 1548h184l-217 -1548h-184zM211 0l115 811h-209l22 160h209l31 217q27 198 117 291.5t268 93.5q78 0 135 -14l-43 -164q-42 18 -102 18q-95 0 -134.5 -53.5t-54.5 -165.5l-30 -223h219l-23 -160h-221l-115 -811h-184z" />
    <glyph glyph-name=".notdef" horiz-adv-x="1224" 
d="M201 0v1434h1024v-1434h-1024zM713 809l348 522h-696zM774 717l348 -522v1044zM365 102h696l-348 523zM303 1239v-1044l348 522z" />
    <glyph glyph-name=".null" horiz-adv-x="0" 
 />
    <glyph glyph-name="nonmarkingreturn" horiz-adv-x="682" 
 />
    <glyph glyph-name="space" unicode=" " horiz-adv-x="569" 
 />
    <glyph glyph-name="exclam" unicode="!" horiz-adv-x="569" 
d="M584 1450l-146 -1032h-196l145 1032h197zM166 123q7 55 53.5 95t102.5 40q55 0 88.5 -39.5t25.5 -95.5t-53 -95.5t-100 -39.5q-56 0 -90 40t-27 95z" />
    <glyph glyph-name="quotedbl" unicode="&#x22;" horiz-adv-x="1062" 
d="M432 946l72 504h160l-72 -504h-160zM737 946l72 504h160l-72 -504h-160z" />
    <glyph glyph-name="numbersign" unicode="#" 
d="M188 0l117 418h-194l22 160h217l82 294h-194l22 160h217l117 418h162l-117 -418h238l116 418h162l-117 -418h195l-23 -160h-217l-82 -294h195l-23 -160h-217l-116 -418h-162l117 418h-238l-117 -418h-162zM831 872h-237l-82 -294h238z" />
    <glyph glyph-name="dollar" unicode="$" 
d="M842 1622l-21 -147q118 0 218.5 -39.5t164.5 -118.5l-166 -143q-38 60 -101 93.5t-140 35.5l-68 -484l-4 -2q82 -24 133.5 -42.5t111 -53t90.5 -75.5t47 -104.5t5 -144.5q-17 -121 -92 -216t-181.5 -147t-228.5 -59l-20 -147h-111l21 147q-298 0 -422 197l178 141
q33 -75 106.5 -119t161.5 -47l72 504q-88 23 -152.5 54t-119 79t-77 120.5t-9.5 166.5q24 168 161.5 279t311.5 125l20 147h111zM623 848l63 455q-102 -16 -171 -77t-81 -155q-22 -160 189 -223zM702 623l-67 -476q108 13 187 77.5t93 164.5q6 51 -8.5 90t-49 66t-69.5 44
t-86 34z" />
    <glyph glyph-name="percent" unicode="%" horiz-adv-x="1744" 
d="M233 1124q22 151 142.5 257t271.5 106t242 -106t69 -257t-142 -256.5t-271 -105.5t-242.5 105.5t-69.5 256.5zM393 1124q-12 -85 38.5 -143.5t135.5 -58.5t152.5 58.5t79.5 143.5t-38.5 144t-135.5 59t-152.5 -59t-79.5 -144zM989 326q22 151 142.5 256.5t271.5 105.5
t242 -105.5t69 -256.5q-20 -151 -141.5 -257t-272.5 -106q-150 0 -240.5 106t-70.5 257zM1149 326q-11 -85 39.5 -144t134.5 -59q85 0 153 59.5t78 143.5q12 85 -38.5 143.5t-135.5 58.5t-152 -58.5t-79 -143.5zM1597 1452l-1124 -1515l-115 63l1125 1516z" />
    <glyph glyph-name="ampersand" unicode="&#x26;" horiz-adv-x="1478" 
d="M1176 338l282 -338h-264l-152 193q-113 -116 -225 -173t-252 -57q-95 0 -171.5 23.5t-125 63.5t-79 94t-39.5 114t0 125q37 259 389 416q-71 89 -104 164.5t-19 171.5q15 107 80 185.5t156.5 116.5t197.5 38q161 0 256.5 -85.5t73.5 -242.5q-32 -216 -355 -373l246 -299
l223 297h224zM983 1147q9 71 -34.5 113.5t-121.5 42.5q-82 0 -143.5 -45.5t-71.5 -124.5q-5 -34 2.5 -68t27 -67t36.5 -55t43 -52q43 22 68.5 36t64.5 40t61.5 49.5t42.5 58t25 72.5zM944 319l-299 365q-49 -26 -78 -43t-70.5 -46.5t-65.5 -57t-44.5 -66.5t-26.5 -82
q-15 -104 57.5 -179t178.5 -75q168 0 348 184z" />
    <glyph glyph-name="quotesingle" unicode="'" horiz-adv-x="569" 
d="M569 1450l-71 -504h-160l72 504h159z" />
    <glyph glyph-name="parenleft" unicode="(" horiz-adv-x="569" 
d="M608 1499l113 -78q-169 -217 -258 -405t-123 -426q-64 -468 147 -828l-135 -81q-116 195 -161.5 428t-10.5 481q34 237 144.5 473.5t283.5 435.5z" />
    <glyph glyph-name="parenright" unicode=")" horiz-adv-x="569" 
d="M127 -319l-113 77q169 217 258 405.5t121 426.5q67 466 -145 827l135 82q116 -196 161 -428.5t9 -480.5q-32 -236 -142.5 -472.5t-283.5 -436.5z" />
    <glyph glyph-name="asterisk" unicode="*" horiz-adv-x="950" 
d="M756 1450l-43 -301l297 96l24 -137l-297 -92l146 -244l-125 -84l-152 250l-215 -246l-102 84l217 240l-279 98l64 133l274 -98l43 301h148z" />
    <glyph glyph-name="plus" unicode="+" horiz-adv-x="1363" 
d="M211 541l22 159h467l66 467h160l-66 -467h467l-22 -159h-467l-66 -467h-160l66 467h-467z" />
    <glyph glyph-name="comma" unicode="," horiz-adv-x="569" 
d="M471 233l-244 -503h-168l213 503h199z" />
    <glyph glyph-name="hyphen" unicode="-" horiz-adv-x="647" 
d="M657 582l-24 -172h-504l25 172h503z" />
    <glyph glyph-name="period" unicode="." horiz-adv-x="569" 
d="M283 -12q-56 0 -90 40t-27 95t53.5 95t102.5 40q55 0 88.5 -39.5t25.5 -95.5t-53 -95.5t-100 -39.5z" />
    <glyph glyph-name="slash" unicode="/" horiz-adv-x="796" 
d="M1006 1487l-875 -1577l-137 53l878 1577z" />
    <glyph glyph-name="zero" unicode="0" 
d="M172 725q15 105 40 201t73.5 199t112.5 178t162 123.5t216 48.5q99 0 175 -33t121 -91.5t73 -131t35.5 -160t5 -168t-14.5 -166.5q-10 -70 -25.5 -138t-41.5 -144t-59.5 -141.5t-81.5 -127t-105 -104.5t-132 -69t-161 -26t-153.5 26t-112 69t-75.5 104.5t-45.5 127
t-19 141.5t-1 144t13.5 138zM369 725q-7 -47 -11 -92t-4.5 -104.5t5 -110.5t21.5 -102.5t41.5 -87.5t68.5 -58.5t100 -22.5q66 0 121.5 29t94.5 80t68.5 108.5t49.5 128t31.5 123.5t19.5 109q7 49 11.5 95.5t5 106.5t-5.5 110.5t-22.5 101t-42.5 85.5t-69 57t-100 22
t-106 -22t-84.5 -57t-66 -86t-50 -100.5t-35.5 -110.5t-25 -106.5t-16 -95.5z" />
    <glyph glyph-name="one" unicode="1" 
d="M553 0l172 1225l-301 -246l-94 137l450 334h174l-204 -1450h-197z" />
    <glyph glyph-name="two" unicode="2" 
d="M94 0l29 209l663 577q182 158 201 297q15 105 -48 168.5t-169 63.5q-105 0 -184 -60t-111 -163l-211 18q55 186 197 281.5t336 95.5q197 0 312 -105.5t87 -296.5q-10 -68 -38.5 -131.5t-75.5 -121t-92 -101t-109 -98.5l-541 -461h729l-25 -172h-950z" />
    <glyph glyph-name="three" unicode="3" 
d="M135 291l215 63q23 -109 75 -158t163 -49q116 0 208 74t109 189q10 70 -8 121t-52.5 79t-89.5 44.5t-104.5 21t-113.5 4.5l22 172q145 0 233 28t124 75.5t47 123.5q17 112 -43 174t-168 62q-79 0 -150.5 -46t-114.5 -122l-192 67q74 134 200.5 203.5t276.5 69.5
q190 0 302.5 -102t86.5 -293q-15 -114 -97 -205t-198 -123v-4q130 -23 191.5 -125t42.5 -240q-14 -101 -65 -182.5t-125.5 -132.5t-165 -78t-187.5 -27q-173 0 -285 78.5t-137 237.5z" />
    <glyph glyph-name="four" unicode="4" 
d="M688 0l45 319h-618l28 201l709 930h238l-136 -958h205l-24 -173h-205l-45 -319h-197zM758 492l100 725h-4l-543 -725h447z" />
    <glyph glyph-name="five" unicode="5" 
d="M1169 1450l-26 -184h-588l-57 -363q30 13 94 22t104 9q203 0 308.5 -133t74.5 -346q-20 -141 -104 -251.5t-208 -169.5t-265 -59q-151 0 -258.5 77.5t-137.5 215.5l209 68q24 -98 84 -143.5t158 -45.5q121 0 213.5 81.5t110.5 215.5q23 154 -61.5 236t-244.5 82
q-59 0 -147 -20.5t-162 -55.5l125 764h778z" />
    <glyph glyph-name="six" unicode="6" 
d="M1020 1450l-445 -561h9q73 33 164 33q81 0 155 -28t132.5 -82t86 -144.5t11.5 -204.5q-16 -116 -69 -210t-130 -154t-171.5 -92t-197.5 -32q-102 0 -188 33.5t-145 93.5t-86 148t-13 192q19 124 67 217.5t140 210.5l448 580h232zM332 449q-19 -133 52.5 -217.5
t205.5 -84.5t229.5 84.5t114.5 217.5t-53.5 217t-206.5 84t-228.5 -84t-113.5 -217z" />
    <glyph glyph-name="seven" unicode="7" 
d="M199 0l768 1278h-701l25 172h911l-24 -168l-758 -1282h-221z" />
    <glyph glyph-name="eight" unicode="8" 
d="M565 -25q-99 0 -181 30.5t-137.5 86.5t-80 139.5t-10.5 184.5q18 131 108 226t217 128v6q-88 25 -143.5 111.5t-36.5 226.5q23 160 161 260.5t314 100.5q114 0 204 -44t137 -127.5t32 -189.5q-19 -139 -99 -226t-176 -112v-6q118 -33 182 -128t46 -226
q-29 -201 -181 -321t-356 -120zM494 1085q-11 -91 41 -160t155 -69q108 0 176.5 66.5t81.5 162.5q15 100 -39 165t-155 65q-95 0 -170 -65t-90 -165zM590 147q123 0 210.5 75t104.5 194q18 127 -50 196.5t-189 71.5q-120 -2 -209.5 -77.5t-104.5 -190.5q-18 -123 51.5 -196
t186.5 -73z" />
    <glyph glyph-name="nine" unicode="9" 
d="M324 0l444 561h-8q-73 -33 -166 -33q-81 0 -154.5 28t-132 82t-85.5 144.5t-11 204.5q16 116 68.5 210t129 154t170.5 92t197 32q102 0 188 -33.5t145.5 -93.5t86.5 -148t12 -192q-17 -123 -64.5 -215.5t-139.5 -212.5l-449 -580h-231zM1012 1001q19 133 -53.5 217.5
t-206.5 84.5t-228.5 -84.5t-113.5 -217.5t52.5 -217t205.5 -84t229.5 84t114.5 217z" />
    <glyph glyph-name="colon" unicode=":" horiz-adv-x="569" 
d="M385 713q-56 0 -90 40t-27 95t52.5 95t101.5 40t90 -40t27 -95t-52.5 -95t-101.5 -40zM166 123q7 55 53.5 95t102.5 40q55 0 88.5 -39.5t25.5 -95.5t-53 -95.5t-100 -39.5q-56 0 -90 40t-27 95z" />
    <glyph glyph-name="semicolon" unicode=";" horiz-adv-x="569" 
d="M471 233l-244 -503h-168l213 503h199zM268 846q7 55 52.5 95t101.5 40t90 -40t27 -95t-52.5 -95t-101.5 -40t-90 40t-27 95z" />
    <glyph glyph-name="less" unicode="&#x3c;" horiz-adv-x="1363" 
d="M1264 248l-23 -160l-1030 449l22 168l1158 450l-23 -162l-977 -372z" />
    <glyph glyph-name="equal" unicode="=" horiz-adv-x="1363" 
d="M256 860h1094l-23 -160h-1094zM211 539h1094l-23 -160h-1094z" />
    <glyph glyph-name="greater" unicode="&#x3e;" horiz-adv-x="1363" 
d="M274 993l23 160l1030 -448l-22 -168l-1158 -451l23 162l979 373z" />
    <glyph glyph-name="question" unicode="?" horiz-adv-x="1024" 
d="M684 406h-197l17 124q6 38 12 65t20.5 53.5t22.5 40t35.5 40t40 37.5t55.5 47q11 9 42 35t44 37.5t38 35.5t37.5 40.5t28 40t24 47t11.5 49.5q13 93 -41 155t-145 62q-98 0 -170 -63t-100 -167l-205 21q51 177 187 279t317 102q178 0 279.5 -101.5t76.5 -277.5
q-10 -77 -42.5 -141.5t-78.5 -104.5l-164 -145q-76 -68 -99 -103.5t-34 -117.5zM408 123q7 55 53 95t102 40q55 0 89 -39.5t26 -95.5q-7 -55 -52.5 -95t-101.5 -40q-55 0 -89.5 39.5t-26.5 95.5z" />
    <glyph glyph-name="at" unicode="@" horiz-adv-x="1638" 
d="M1004 993q-138 0 -233.5 -113t-117.5 -270q-23 -164 123 -164q79 0 153.5 60t120.5 143.5t58 163.5q10 77 -16.5 128.5t-87.5 51.5zM1415 1114l-250 -567q-14 -29 -18 -51q-3 -26 9.5 -38t43.5 -12q57 0 122.5 54t117.5 149t67 199q16 117 -13 214t-94 159.5t-157 96.5
t-201 34q-172 0 -322 -83.5t-247.5 -228t-122.5 -319.5q-24 -178 37.5 -321t190.5 -222.5t299 -79.5q149 0 284 54.5t221 152.5h162q-106 -153 -299.5 -247.5t-392.5 -94.5q-128 0 -240 38t-196 108.5t-140.5 164.5t-78 211t-4.5 244q22 155 102 295.5t196.5 241.5
t265.5 161t302 60q141 0 262.5 -47t204.5 -129t122.5 -198.5t20.5 -248.5q-14 -100 -58.5 -193t-105 -161t-130.5 -119.5t-139.5 -77.5t-127.5 -26q-55 0 -86.5 35t-24.5 96h-8q-143 -131 -272 -131q-127 0 -191 92t-45 229q19 136 91.5 259.5t191 204.5t252.5 81
q75 0 128.5 -38.5t67.5 -117.5h5l49 117h149z" />
    <glyph glyph-name="A" unicode="A" horiz-adv-x="1441" 
d="M2 0l844 1450h178l416 -1450h-230l-94 358h-690l-195 -358h-229zM518 530h549l-176 666h-4z" />
    <glyph glyph-name="B" unicode="B" horiz-adv-x="1290" 
d="M186 0l205 1450h504q197 0 305 -92.5t84 -270.5q-18 -120 -96 -200.5t-199 -118.5l-2 -4q131 -9 207.5 -112.5t56.5 -248.5q-18 -126 -100 -219t-203 -138.5t-264 -45.5h-498zM563 1278l-61 -430h268q122 0 203.5 52.5t97.5 164.5q13 92 -36.5 152.5t-162.5 60.5h-309z
M477 676l-69 -504h288q40 0 79.5 5.5t85.5 22t82.5 43t64.5 71.5t36 104q17 126 -56.5 192t-219.5 66h-291z" />
    <glyph glyph-name="C" unicode="C" horiz-adv-x="1441" 
d="M1538 1262l-182 -125q-50 78 -138.5 122t-189.5 44q-120 0 -228 -46t-188 -125t-134 -187.5t-72 -231.5q-22 -154 23.5 -281.5t159 -206t277.5 -78.5q242 0 406 195l149 -125q-20 -23 -48.5 -49.5t-84 -65t-117.5 -67.5t-151.5 -50.5t-183.5 -21.5q-134 0 -247.5 43
t-191.5 116.5t-129.5 169t-68.5 203.5t-2 218q31 223 151 399.5t306.5 275.5t406.5 99q150 0 279 -57t198 -168z" />
    <glyph glyph-name="D" unicode="D" horiz-adv-x="1517" 
d="M154 0l204 1450h506q99 0 184.5 -16t150 -44.5t117 -68t88 -85.5t61.5 -98.5t40.5 -105t20.5 -108t5 -104t-7 -95.5q-20 -141 -90.5 -270t-182.5 -231t-274 -163t-350 -61h-473zM528 1266l-151 -1082h248q126 0 241 35t209 101t157.5 170.5t82.5 234.5q5 37 5 76t-5 86
t-20.5 90.5t-39.5 87t-63 79t-89.5 63.5t-122 43.5t-157.5 15.5h-295z" />
    <glyph glyph-name="E" unicode="E" horiz-adv-x="1251" 
d="M186 0l205 1450h936l-27 -184h-739l-61 -432h688l-25 -185h-688l-65 -465h776l-27 -184h-973z" />
    <glyph glyph-name="F" unicode="F" horiz-adv-x="1175" 
d="M186 0l205 1450h912l-27 -184h-715l-63 -455h665l-26 -184h-666l-88 -627h-197z" />
    <glyph glyph-name="G" unicode="G" horiz-adv-x="1593" 
d="M1018 811h518l-100 -715q-111 -62 -271 -97.5t-299 -35.5q-180 0 -319 61t-221 165.5t-115 242.5t-12 293q29 213 149.5 387t308 274.5t404.5 100.5q192 0 315 -48.5t199 -140.5l-160 -149q-137 154 -381 154q-122 0 -231.5 -46t-190 -124.5t-134 -184t-70.5 -223.5
q-23 -162 32 -294.5t173.5 -208t275.5 -75.5q220 0 366 76l58 404h-322z" />
    <glyph glyph-name="H" unicode="H" horiz-adv-x="1517" 
d="M186 0l205 1450h197l-86 -602h751l86 602h197l-205 -1450h-196l94 664h-752l-94 -664h-197z" />
    <glyph glyph-name="I" unicode="I" horiz-adv-x="569" 
d="M186 0l205 1450h197l-205 -1450h-197z" />
    <glyph glyph-name="J" unicode="J" horiz-adv-x="987" 
d="M707 477l137 973h196l-147 -1036q-11 -76 -35 -140t-55.5 -109.5t-71.5 -81t-81 -58t-85.5 -37t-83 -20t-75.5 -5.5q-157 0 -249.5 80.5t-99.5 237.5l199 43q6 -84 51 -130.5t125 -46.5q56 0 101 19t73.5 49.5t49.5 75.5t32 88.5t19 97.5z" />
    <glyph glyph-name="K" unicode="K" horiz-adv-x="1327" 
d="M186 0l205 1450h197l-88 -627h16l729 627h275l-795 -670l637 -780h-287l-573 725h-17l-102 -725h-197z" />
    <glyph glyph-name="L" unicode="L" horiz-adv-x="1062" 
d="M186 0l205 1450h197l-178 -1266h665l-26 -184h-863z" />
    <glyph glyph-name="M" unicode="M" horiz-adv-x="1855" 
d="M172 0l205 1450h293l305 -1098h8l612 1098h293l-205 -1450h-196l168 1192h-4l-658 -1192h-131l-321 1192h-4l-168 -1192h-197z" />
    <glyph glyph-name="N" unicode="N" horiz-adv-x="1630" 
d="M186 0l205 1450h258l631 -1192h4l168 1192h197l-205 -1450h-250l-639 1192h-4l-168 -1192h-197z" />
    <glyph glyph-name="O" unicode="O" horiz-adv-x="1703" 
d="M846 -37q-217 0 -376 100.5t-230 274.5t-41 387q29 213 149.5 387t308 274.5t404.5 100.5t376 -100.5t230.5 -274.5t42.5 -387q-23 -159 -99 -300t-189.5 -242.5t-263 -160.5t-312.5 -59zM872 147q162 0 299 78.5t222 209.5t108 290q17 118 -7.5 224t-84 184t-156.5 124
t-219 46t-231.5 -46t-190 -124.5t-134 -184t-70.5 -223.5q-23 -159 25 -290t162.5 -209.5t276.5 -78.5z" />
    <glyph glyph-name="P" unicode="P" horiz-adv-x="1214" 
d="M186 0l205 1450h510q77 0 140.5 -13t107 -35.5t77 -54t50.5 -67.5t28 -76t9.5 -80.5t-4.5 -79.5q-9 -59 -29 -112.5t-60.5 -108.5t-96.5 -94.5t-143 -64.5t-194 -25h-313l-90 -639h-197zM563 1278l-65 -467h258q51 0 93 5t86.5 20.5t76.5 40.5t56 67.5t32 99.5t-4 100
t-37 68t-65 40.5t-81 20.5t-92 5h-258z" />
    <glyph glyph-name="Q" unicode="Q" horiz-adv-x="1703" 
d="M1708 172l-25 -172h-835q-153 0 -283 55.5t-218 152.5t-128 235.5t-18 297.5q29 210 151.5 381t308 268t394.5 97q151 0 279.5 -55.5t214.5 -151t125.5 -231t17.5 -287.5q-18 -125 -71 -239t-142.5 -206.5t-200.5 -140.5v-4h430zM866 184q234 0 408.5 164.5t208.5 405.5
q21 152 -30.5 277.5t-165 198.5t-265.5 73q-111 0 -216.5 -43t-186.5 -116.5t-136 -174t-71 -211.5q-22 -158 26.5 -288.5t161 -208t266.5 -77.5z" />
    <glyph glyph-name="R" unicode="R" horiz-adv-x="1251" 
d="M186 0l205 1450h510q77 0 140.5 -13t107 -35.5t77 -54t50.5 -67.5t28 -76t9.5 -80.5t-4.5 -79.5q-21 -143 -135.5 -253.5t-276.5 -128.5l320 -662h-246l-279 639h-219l-90 -639h-197zM563 1278l-65 -467h258q51 0 93 5t86.5 20.5t76.5 40.5t56 67.5t32 99.5t-4 100
t-37 68t-65 40.5t-81 20.5t-92 5h-258z" />
    <glyph glyph-name="S" unicode="S" 
d="M90 164l182 139q38 -76 115.5 -116t169.5 -40q68 0 136 26t122.5 83t65.5 133q7 53 -11.5 92.5t-56.5 64.5t-89 45t-108 38.5t-113.5 40t-105.5 55.5t-84 79t-49.5 116t-1.5 161q8 53 33 107.5t71.5 108.5t108 96t149 68t187.5 26q133 0 232.5 -36.5t162.5 -129.5
l-180 -145q-30 58 -94.5 92.5t-147.5 34.5q-77 0 -138 -21.5t-96 -56t-54.5 -71t-24.5 -73.5q-8 -58 10.5 -102t56 -71t88.5 -47.5t107.5 -38t113 -37t106 -50t85 -70.5t51 -105t3.5 -148q-19 -137 -102 -240.5t-204 -156t-262 -52.5q-145 0 -260.5 51t-173.5 150z" />
    <glyph glyph-name="T" unicode="T" horiz-adv-x="1175" 
d="M489 0l179 1266h-467l26 184h1131l-27 -184h-467l-178 -1266h-197z" />
    <glyph glyph-name="U" unicode="U" horiz-adv-x="1441" 
d="M365 1450h196l-125 -889q-9 -45 -6 -93t12 -94t33.5 -87.5t58.5 -72.5t87.5 -49t119.5 -18q98 0 177 38.5t128.5 102t78.5 132t40 141.5l125 889h197l-131 -920q-35 -249 -217.5 -408t-423.5 -159q-158 0 -275.5 71t-173.5 201t-33 295z" />
    <glyph glyph-name="V" unicode="V" horiz-adv-x="1290" 
d="M547 0l-354 1450h227l260 -1180h4l608 1180h215l-776 -1450h-184z" />
    <glyph glyph-name="W" unicode="W" horiz-adv-x="1970" 
d="M426 0l-219 1450h205l155 -1159h4l506 1159h226l178 -1159h4l483 1159h205l-627 -1450h-207l-186 1184h-4l-516 -1184h-207z" />
    <glyph glyph-name="X" unicode="X" horiz-adv-x="1327" 
d="M-4 0l633 762l-389 688h252l296 -557l453 557h246l-582 -686l426 -764h-258l-328 629l-505 -629h-244z" />
    <glyph glyph-name="Y" unicode="Y" horiz-adv-x="1253" 
d="M528 0l86 618l-430 832h252l305 -637l498 637h240l-668 -832l-86 -618h-197z" />
    <glyph glyph-name="Z" unicode="Z" horiz-adv-x="1214" 
d="M66 0l26 184l977 1082h-801l27 184h1046l-26 -184l-973 -1082h834l-27 -184h-1083z" />
    <glyph glyph-name="bracketleft" unicode="[" horiz-adv-x="569" 
d="M102 -319l256 1818h357l-19 -135h-184l-219 -1548h184l-18 -135h-357z" />
    <glyph glyph-name="backslash" unicode="\" horiz-adv-x="796" 
d="M641 -90l-432 1577l149 53l433 -1577z" />
    <glyph glyph-name="bracketright" unicode="]" horiz-adv-x="569" 
d="M20 -319l19 135h184l219 1548h-184l18 135h357l-256 -1818h-357z" />
    <glyph glyph-name="asciicircum" unicode="^" horiz-adv-x="1363" 
d="M244 565l561 885h164l311 -885h-170l-248 723l-448 -723h-170z" />
    <glyph glyph-name="underscore" unicode="_" horiz-adv-x="1024" 
d="M-37 -256l14 102h1024l-14 -102h-1024z" />
    <glyph glyph-name="grave" unicode="`" horiz-adv-x="491" 
d="M373 1450l170 -295h-170l-262 295h262z" />
    <glyph glyph-name="a" unicode="a" horiz-adv-x="1062" 
d="M358 737l-96 115q85 70 193 106.5t213 36.5q104 0 180.5 -26.5t117.5 -72.5t56.5 -102.5t5.5 -121.5l-70 -496q-12 -84 -16 -176h-164q1 37 15 147h-5q-71 -91 -160.5 -131.5t-203.5 -40.5q-142 0 -228 78t-67 213q13 91 63.5 157.5t131 104.5t176.5 56t211 18h135l6 41
q12 83 -40 144t-163 61q-21 0 -41 -2t-35.5 -4t-35 -8.5t-30 -9.5t-29.5 -13t-25.5 -12.5t-26.5 -15.5t-22.5 -14.5t-23.5 -16.5t-22 -15zM827 467h-98q-387 0 -414 -186q-10 -81 39 -119.5t148 -38.5q73 0 132.5 25.5t96.5 67.5t59 90t29 100z" />
    <glyph glyph-name="b" unicode="b" horiz-adv-x="1251" 
d="M139 0l217 1548h185l-101 -717h4q60 75 158.5 119.5t202.5 44.5q221 0 337 -144.5t85 -365.5q-30 -219 -186.5 -364.5t-378.5 -145.5q-101 0 -187.5 44t-126.5 120h-4l-20 -139h-185zM664 147q146 0 245.5 94t120.5 244q22 150 -51 244t-219 94t-246.5 -94t-122.5 -244
q-21 -150 53 -244t220 -94z" />
    <glyph glyph-name="c" unicode="c" horiz-adv-x="987" 
d="M1092 840l-158 -127q-44 55 -98 81.5t-129 26.5q-144 0 -237.5 -99.5t-113.5 -244.5q-21 -139 53 -234.5t214 -95.5q142 0 251 109l113 -131q-160 -150 -391 -150q-224 0 -345.5 141t-90.5 365q32 226 192.5 369t386.5 143q109 0 201 -38.5t152 -114.5z" />
    <glyph glyph-name="d" unicode="d" horiz-adv-x="1251" 
d="M1329 1548l-217 -1548h-184l20 139h-4q-65 -77 -163.5 -120.5t-198.5 -43.5q-221 0 -336.5 145t-85.5 365q31 222 187.5 366t377.5 144q105 0 191 -44.5t124 -119.5h4l101 717h184zM629 147q146 0 245.5 94t120.5 244q22 150 -51 244t-219 94t-246.5 -94t-122.5 -244
q-21 -150 53 -244t220 -94z" />
    <glyph glyph-name="e" unicode="e" 
d="M1116 418h-778q-18 -124 68.5 -203.5t218.5 -79.5q147 0 286 146l125 -107q-181 -199 -458 -199q-226 0 -342.5 144.5t-85.5 365.5q31 219 193.5 364.5t379.5 145.5q83 0 151 -20.5t113 -56.5t78 -85t46.5 -106t18.5 -119t-6 -125zM358 565h582q14 127 -47 205t-195 78
q-129 0 -227 -89.5t-113 -193.5z" />
    <glyph glyph-name="f" unicode="f" horiz-adv-x="681" 
d="M211 0l115 811h-209l22 160h209l31 217q27 198 117 291.5t268 93.5q78 0 135 -14l-43 -164q-42 18 -102 18q-95 0 -134.5 -53.5t-54.5 -165.5l-30 -223h219l-23 -160h-221l-115 -811h-184z" />
    <glyph glyph-name="g" unicode="g" horiz-adv-x="1251" 
d="M1249 971l-135 -963q-32 -221 -199 -360.5t-403 -139.5q-142 0 -252.5 41t-198.5 134l148 155q126 -157 323 -157q98 0 173.5 28.5t120.5 78t70 106t34 122.5l20 144h-6q-62 -84 -158.5 -128t-201.5 -44q-213 0 -334 142t-90 355q15 107 63.5 200.5t121 162t171 108
t209.5 39.5q100 0 186.5 -44t128.5 -120h4l21 140h184zM725 823q-146 0 -246.5 -94t-122.5 -244q-20 -148 54 -236.5t221 -88.5t245.5 88.5t118.5 236.5q22 150 -51 244t-219 94z" />
    <glyph glyph-name="h" unicode="h" 
d="M139 0l217 1548h185l-103 -727h4q46 78 139.5 126t204.5 48q152 0 239.5 -93.5t61.5 -276.5l-88 -625h-184l80 573q19 128 -34.5 189t-149.5 61q-122 0 -208 -80.5t-110 -242.5l-69 -500h-185z" />
    <glyph glyph-name="i" unicode="i" horiz-adv-x="491" 
d="M154 0l137 971h184l-137 -971h-184zM297 1319q7 55 52.5 95t101.5 40q55 0 89.5 -39.5t26.5 -95.5q-9 -56 -54.5 -95.5t-100.5 -39.5q-56 0 -90 40t-25 95z" />
    <glyph glyph-name="j" unicode="j" horiz-adv-x="491" 
d="M291 971h184l-158 -1110q-42 -353 -346 -353q-64 0 -114 19l43 170q46 -16 73 -16q73 0 111.5 46.5t50.5 141.5zM297 1319q7 55 52.5 95t101.5 40q55 0 89.5 -39.5t26.5 -95.5q-9 -56 -54.5 -95.5t-100.5 -39.5q-56 0 -90 40t-25 95z" />
    <glyph glyph-name="k" unicode="k" horiz-adv-x="1062" 
d="M139 0l217 1548h185l-140 -999l476 420h256l-515 -441l418 -528h-262l-379 504l-71 -504h-185z" />
    <glyph glyph-name="l" unicode="l" horiz-adv-x="491" 
d="M154 0l217 1548h184l-217 -1548h-184z" />
    <glyph glyph-name="m" unicode="m" horiz-adv-x="1744" 
d="M139 0l137 971h173l-23 -152h4q26 55 122.5 115.5t213.5 60.5q210 0 278 -180q58 86 149 133t183 47q371 0 310 -430l-80 -565h-185l76 541q10 55 7 106t-17 90t-54 62.5t-104 23.5q-128 0 -199.5 -78.5t-91.5 -214.5l-73 -530h-185l72 508q12 93 10 163t-43.5 111
t-126.5 41q-107 0 -191 -81.5t-106 -237.5l-71 -504h-185z" />
    <glyph glyph-name="n" unicode="n" 
d="M139 0l137 971h185l-23 -150h4q46 78 139.5 126t204.5 48q152 0 239.5 -93.5t61.5 -276.5l-88 -625h-184l80 573q19 128 -34.5 189t-149.5 61q-122 0 -208 -80.5t-110 -242.5l-69 -500h-185z" />
    <glyph glyph-name="o" unicode="o" horiz-adv-x="1216" 
d="M356 485q-21 -150 53 -244t220 -94t245.5 94t120.5 244q22 150 -51 244t-219 94t-246.5 -94t-122.5 -244zM160 485q31 213 201.5 361.5t386.5 148.5q142 0 251.5 -68t161 -185.5t31.5 -256.5q-19 -139 -104 -256.5t-213.5 -185.5t-270.5 -68t-251 68t-160.5 185
t-32.5 257z" />
    <glyph glyph-name="p" unicode="p" horiz-adv-x="1251" 
d="M57 -578l219 1549h185l-21 -140h4q63 76 162 120t199 44q147 0 251 -67.5t147.5 -183.5t23.5 -259q-31 -222 -187.5 -366t-377.5 -144q-105 0 -190.5 44.5t-123.5 119.5h-4l-102 -717h-185zM760 823q-146 0 -246.5 -94t-122.5 -244q-21 -150 53 -244t220 -94t245.5 94
t120.5 244q22 150 -51 244t-219 94z" />
    <glyph glyph-name="q" unicode="q" horiz-adv-x="1251" 
d="M1249 971l-202 -1438h-185l86 606h-4q-60 -75 -158.5 -119.5t-203.5 -44.5q-221 0 -337 144.5t-85 365.5q15 107 63.5 200.5t121 162t171 108t209.5 39.5q100 0 186.5 -44t128.5 -120h4l21 140h184zM725 823q-146 0 -246.5 -94t-122.5 -244q-21 -150 53 -244t220 -94
t245.5 94t120.5 244q22 150 -51 244t-219 94z" />
    <glyph glyph-name="r" unicode="r" horiz-adv-x="757" 
d="M139 0l137 971h185l-23 -150h4q45 76 135 125t181 49q46 0 80 -12l-35 -199q-58 15 -88 15q-279 0 -324 -312l-67 -487h-185z" />
    <glyph glyph-name="s" unicode="s" horiz-adv-x="909" 
d="M915 836l-157 -109q-63 96 -185 96q-68 0 -119.5 -29t-58.5 -79q-3 -24 3 -44t22 -34.5t32 -24.5t43.5 -18.5t43.5 -12.5t46 -10t38 -8q64 -16 107.5 -35.5t80 -51t50 -80.5t3.5 -115q-11 -79 -53.5 -139.5t-104.5 -96t-132.5 -53t-145.5 -17.5q-126 0 -210 38.5
t-140 133.5l155 115q46 -54 97 -84.5t123 -30.5q78 0 142.5 32t72.5 91q2 18 -0.5 33.5t-12 28t-19 22.5t-26.5 18.5t-29 14t-33.5 11.5t-32 8.5t-32.5 7.5t-28 6q-53 13 -89.5 25.5t-75 34.5t-59.5 49.5t-31.5 70t-2.5 96.5q14 97 78.5 166.5t150 101t180.5 31.5
q105 0 188 -39t121 -120z" />
    <glyph glyph-name="t" unicode="t" horiz-adv-x="757" 
d="M797 971l-23 -160h-264l-64 -440q-3 -25 -4.5 -36.5t-3.5 -35t-1 -35.5t3 -31t7.5 -29t14.5 -23t21.5 -19t30.5 -10.5t41 -4.5q86 0 135 29l-22 -168q-31 -17 -83 -25t-89 -8q-46 0 -84 6.5t-64.5 16.5t-46 28t-31.5 35t-18.5 43t-8.5 46t-0.5 51t4 51t7.5 53l72 506
h-213l22 160h213l37 272h184l-37 -272h265z" />
    <glyph glyph-name="u" unicode="u" 
d="M1137 971l-138 -971h-184l21 150h-5q-47 -78 -140 -126.5t-204 -48.5q-152 0 -238.5 94t-60.5 277l88 625h185l-82 -574q-18 -128 36 -189t150 -61q122 0 208 81t108 243l71 500h185z" />
    <glyph glyph-name="v" unicode="v" horiz-adv-x="1024" 
d="M418 0l-258 971h213l186 -744l383 744h197l-518 -971h-203z" />
    <glyph glyph-name="w" unicode="w" horiz-adv-x="1554" 
d="M342 0l-182 971h207l116 -725h4l334 725h195l143 -725h4l312 725h194l-450 -971h-187l-153 725h-5l-333 -725h-199z" />
    <glyph glyph-name="x" unicode="x" horiz-adv-x="1062" 
d="M12 0l467 518l-280 453h237l187 -344l280 344h223l-395 -453l320 -518h-238l-229 408l-344 -408h-228z" />
    <glyph glyph-name="y" unicode="y" horiz-adv-x="1024" 
d="M426 -6l-266 977h213l182 -758h4l381 758h199l-627 -1180q-39 -73 -69 -117t-74 -86t-100 -61t-130 -19q-93 0 -159 27l47 168q52 -22 106 -22q56 0 96 21.5t62.5 51.5t52.5 86z" />
    <glyph glyph-name="z" unicode="z" horiz-adv-x="948" 
d="M72 0l22 166l643 645h-532l22 160h758l-24 -164l-646 -647h584l-22 -160h-805z" />
    <glyph glyph-name="braceleft" unicode="{" horiz-adv-x="681" 
d="M834 1499l-21 -147h-92q-55 0 -87 -51t-42 -127l-45 -310q-6 -54 -25.5 -100t-43 -74.5t-52.5 -51t-50 -32.5t-38 -14l-2 -6q17 -2 35.5 -11t42 -28.5t38 -50t22.5 -77t-5 -108.5l-43 -307q-4 -44 -1.5 -83t23 -66t58.5 -27h92l-20 -147h-154q-40 0 -74 18t-61 56.5
t-36 97.5t1 141l37 274q12 110 -27 175t-110 65l22 160q71 0 128 64.5t77 174.5l45 324q18 123 94 195.5t160 72.5h154z" />
    <glyph glyph-name="bar" unicode="|" horiz-adv-x="768" 
d="M412 1702h151v-2267h-151v2267z" />
    <glyph glyph-name="braceright" unicode="}" horiz-adv-x="681" 
d="M14 -319l21 147h92q55 0 87 51t42 127l45 309q7 66 33.5 120t61 84.5t63 46.5t51.5 22l2 6q-17 2 -35.5 10.5t-42 28t-38 50.5t-22.5 77t5 108l43 308q4 44 1.5 83t-23 66t-58.5 27h-92l20 147h154q40 0 74 -18t61 -56.5t36 -97.5t-1 -141l-37 -275q-17 -109 24 -174
t113 -65l-22 -160q-72 0 -131.5 -65.5t-73.5 -174.5l-47 -323q-8 -63 -34.5 -115t-62 -84.5t-76 -50.5t-79.5 -18h-154z" />
    <glyph glyph-name="asciitilde" unicode="~" horiz-adv-x="1363" 
d="M1194 774l63 -127q-129 -180 -286 -180q-37 0 -80.5 12.5t-71 24.5t-76.5 37q-50 26 -73.5 37t-62.5 23.5t-70 12.5q-59 0 -104.5 -40.5t-88.5 -106.5l-63 127q64 87 134.5 133.5t162.5 46.5q89 0 221 -74q6 -3 28 -15.5t29.5 -16t26 -13t28.5 -13t25.5 -8.5t28.5 -7
t26 -2q52 0 101 34t102 115z" />
    <glyph glyph-name="uni00A0" unicode="&#xa0;" horiz-adv-x="569" 
 />
    <glyph glyph-name="exclamdown" unicode="&#xa1;" horiz-adv-x="569" 
d="M127 -455l145 1033h197l-145 -1033h-197zM543 872q-7 -55 -52.5 -95t-101.5 -40t-90 40t-27 95q8 56 53.5 96t100.5 40t90 -40t27 -96z" />
    <glyph glyph-name="cent" unicode="&#xa2;" 
d="M817 836l-98 -701q129 3 233 107l103 -119q-135 -132 -359 -148l-18 -135h-111l19 135q-198 20 -298.5 163t-72.5 347q29 206 167.5 343.5t346.5 166.5l21 135h110l-20 -135q99 -5 184.5 -45t136.5 -110l-151 -121q-33 49 -85 82.5t-108 34.5zM608 135l99 701
q-124 -19 -206 -117.5t-100 -229.5q-19 -131 36 -231t171 -123z" />
    <glyph glyph-name="sterling" unicode="&#xa3;" 
d="M999 819l-20 -147h-332l-69 -500h503l-24 -172h-910l25 172h209l70 500h-197l20 147h197l29 205q13 91 53.5 171t104 143.5t155.5 100t201 36.5q214 0 327 -127l-143 -144q-89 99 -188 99q-56 0 -106 -18t-94.5 -55.5t-76 -102.5t-43.5 -152l-22 -156h331z" />
    <glyph glyph-name="currency" unicode="&#xa4;" 
d="M203 1137l133 114l86 -98q156 100 323 100q171 0 295 -100l115 98l100 -114l-114 -101q80 -133 57 -309q-26 -174 -143 -309l86 -101l-133 -116l-86 100q-147 -100 -324 -100q-171 0 -295 100l-115 -100l-100 116l115 101q-83 140 -58 309q21 167 144 309zM305 727
q-22 -152 71 -259.5t245 -107.5t273.5 107.5t143.5 259.5t-70.5 259.5t-244.5 107.5t-274 -107.5t-144 -259.5z" />
    <glyph glyph-name="yen" unicode="&#xa5;" 
d="M483 0l54 381h-351l19 135h350l16 109l-26 57h-316l19 135h233l-286 633h204l275 -647l471 647h209l-471 -633h237l-18 -135h-316l-43 -57l-16 -109h350l-18 -135h-350l-54 -381h-172z" />
    <glyph glyph-name="brokenbar" unicode="&#xa6;" horiz-adv-x="765" 
d="M412 1532h149v-795h-149v795zM412 397h149v-792h-149v792z" />
    <glyph glyph-name="section" unicode="&#xa7;" 
d="M1169 1282l-184 -94q-36 124 -190 127q-86 0 -150.5 -40.5t-75.5 -119.5q-7 -49 21 -89t77.5 -69t110 -57t120.5 -61t107.5 -72.5t72.5 -100t14 -135.5q-12 -88 -66.5 -157t-140.5 -111q119 -89 98 -248q-12 -85 -58 -153.5t-113.5 -110.5t-146 -64t-161.5 -22
q-143 0 -245.5 61.5t-137.5 186.5l190 84q14 -81 76.5 -120.5t155.5 -39.5q86 0 152 44.5t79 133.5q6 43 -22 80t-77.5 66t-109.5 57.5t-120 61.5t-108 70.5t-74 91.5t-17 118q16 116 78.5 189.5t164.5 119.5q-148 91 -129 242q11 80 56.5 145.5t111 106t141.5 62.5t154 22
q120 0 216.5 -51.5t129.5 -153.5zM764 741l-152 78q-34 -13 -59.5 -25.5t-51.5 -32t-42.5 -46t-20.5 -58.5q-5 -40 5 -72t36 -55t48.5 -37t58.5 -32l24 -12l148 -76q56 32 98 80.5t49 99.5q5 36 -5 65t-35.5 53t-45.5 37.5t-55 32.5z" />
    <glyph glyph-name="dieresis" unicode="&#xa8;" horiz-adv-x="491" 
d="M242 1462q49 0 83 -33.5t27 -82.5q-8 -56 -49 -92.5t-96 -36.5t-86 36.5t-23 92.5q7 49 51 82.5t93 33.5zM659 1462q49 0 83.5 -33.5t27.5 -82.5q-8 -56 -49 -92.5t-96 -36.5t-86 36.5t-23 92.5q7 49 50.5 82.5t92.5 33.5z" />
    <glyph glyph-name="copyright" unicode="&#xa9;" horiz-adv-x="1638" 
d="M160 725q22 155 102 296t196 243t265.5 162.5t304.5 60.5t287.5 -60.5t220 -162.5t128.5 -243t19 -296t-102.5 -296t-197 -243t-266 -162.5t-304.5 -60.5t-287 60.5t-219.5 162.5t-128 243t-18.5 296zM1130 586h158q-53 -148 -166.5 -235t-259.5 -87q-211 0 -315 128.5
t-74 338.5q30 214 165.5 340.5t348.5 126.5q156 0 248.5 -80.5t95.5 -232.5h-157q-20 166 -205 166q-143 0 -228.5 -83t-107.5 -233q-19 -138 48 -230.5t202 -92.5q186 0 247 174zM295 725q-18 -127 15.5 -243.5t105.5 -200.5t181.5 -133.5t236.5 -49.5q170 0 326 84
t260 228.5t128 314.5t-39.5 314.5t-196 228.5t-302.5 84t-326 -84t-260.5 -228.5t-128.5 -314.5z" />
    <glyph glyph-name="ordfeminine" unicode="&#xaa;" horiz-adv-x="690" 
d="M754 870h-136l13 91l-4 2q-63 -105 -219 -105q-90 0 -147 46t-46 130q6 42 25.5 75.5t45 55t63 37.5t71 24t78.5 12.5t75.5 5.5t71.5 1h25l4 21q6 42 -27 70t-98 28q-110 0 -193 -68l-59 93q112 86 264 86q69 0 118.5 -11t75.5 -30.5t41 -45t15.5 -55t-2.5 -61.5z
M657 1147h-4q-48 0 -76.5 -1t-74.5 -6.5t-73 -15.5t-50 -31t-27 -51q-6 -40 25.5 -56.5t85.5 -16.5q83 0 131 37.5t57 101.5z" />
    <glyph glyph-name="guillemotleft" unicode="&#xab;" horiz-adv-x="1024" 
d="M403 55l-237 443l360 442l115 -84l-291 -358l193 -359zM809 55l-238 443l361 442l115 -84l-291 -358l192 -359z" />
    <glyph glyph-name="logicalnot" unicode="&#xac;" horiz-adv-x="1363" 
d="M1350 860l-80 -571h-160l57 411h-934l23 160h1094z" />
    <glyph glyph-name="uni00AD" unicode="&#xad;" horiz-adv-x="647" 
d="M657 582l-24 -172h-504l25 172h503z" />
    <glyph glyph-name="registered" unicode="&#xae;" horiz-adv-x="1638" 
d="M567 295l123 870h336q155 0 222 -67t48 -195q-14 -109 -79 -168.5t-162 -70.5l174 -369h-168l-166 356h-117l-51 -356h-160zM831 1030l-34 -244h116q30 0 50 1t47.5 4.5t46 12t36.5 21.5t29 34.5t15 49.5q5 34 -4.5 57.5t-26 36t-45.5 19t-53.5 8t-59.5 0.5h-117z
M160 725q22 155 102 296t196 243t265.5 162.5t304.5 60.5t287.5 -60.5t220 -162.5t128.5 -243t19 -296t-102.5 -296t-197 -243t-266 -162.5t-304.5 -60.5t-287 60.5t-219.5 162.5t-128 243t-18.5 296zM295 725q-18 -127 15.5 -243.5t105.5 -200.5t181.5 -133.5t236.5 -49.5
q170 0 326 84t260 228.5t128 314.5t-39.5 314.5t-196 228.5t-302.5 84t-326 -84t-260.5 -228.5t-128.5 -314.5z" />
    <glyph glyph-name="macron" unicode="&#xaf;" horiz-adv-x="491" 
d="M733 1364l-20 -135h-590l20 135h590z" />
    <glyph glyph-name="degree" unicode="&#xb0;" horiz-adv-x="819" 
d="M268 1169q19 126 120.5 216t227.5 90t204 -90t59 -216q-17 -126 -120 -215.5t-229 -89.5t-202.5 89.5t-59.5 215.5zM403 1169q-9 -71 34.5 -120.5t113.5 -49.5q71 0 127 50t65 120q10 70 -32 120t-113 50q-70 0 -127 -49.5t-68 -120.5z" />
    <glyph glyph-name="plusminus" unicode="&#xb1;" horiz-adv-x="1363" 
d="M225 645l23 160h467l47 334h160l-48 -334h467l-22 -160h-467l-43 -307h-160l43 307h-467zM150 104l22 160h1094l-23 -160h-1093z" />
    <glyph glyph-name="twosuperior" unicode="&#xb2;" horiz-adv-x="739" 
d="M137 592l21 156l413 327q31 26 49 42.5t39 47.5t25 60q7 53 -26.5 83.5t-90.5 30.5q-59 0 -101 -32.5t-54 -87.5l-172 12q27 117 121 180.5t225 63.5q135 0 211.5 -63.5t58.5 -182.5q-10 -76 -55 -134.5t-125 -119.5l-324 -248h436l-18 -135h-633z" />
    <glyph glyph-name="threesuperior" unicode="&#xb3;" horiz-adv-x="739" 
d="M424 977l18 135h37q40 0 69 4t59.5 15.5t49 36t23.5 61.5q7 49 -25.5 79.5t-91.5 30.5q-50 0 -90 -24t-63 -68l-166 41q42 93 130.5 140t198.5 47q129 0 207 -60.5t62 -169.5q-9 -71 -60 -125t-127 -71v-5q85 -10 124.5 -69t27.5 -141q-17 -118 -118 -186t-234 -68
q-123 0 -202 49.5t-93 152.5l176 41q16 -108 137 -108q65 0 117 37t59 94q6 40 -8.5 68t-44.5 41t-63 18t-74 4h-35z" />
    <glyph glyph-name="acute" unicode="&#xb4;" horiz-adv-x="491" 
d="M272 1155l256 295h263l-349 -295h-170z" />
    <glyph glyph-name="mu" unicode="&#xb5;" 
d="M74 -467l202 1438h185l-82 -574q-18 -128 36 -189t150 -61q122 0 208 81t108 243l71 500h185l-138 -971h-184l21 150h-5q-47 -78 -140 -126.5t-204 -48.5q-94 0 -161 37l-68 -479h-184z" />
    <glyph glyph-name="paragraph" unicode="&#xb6;" horiz-adv-x="1228" 
d="M496 -258l129 909q-186 0 -292 109t-83 270q28 198 168 309t358 111h510l-242 -1708h-159l221 1573h-229l-222 -1573h-159z" />
    <glyph glyph-name="periodcentered" unicode="&#xb7;" horiz-adv-x="569" 
d="M238 621q8 56 53 95.5t100 39.5q56 0 90 -40t27 -95t-53.5 -95.5t-102.5 -40.5q-55 0 -88.5 40t-25.5 96z" />
    <glyph glyph-name="cedilla" unicode="&#xb8;" horiz-adv-x="491" 
d="M-49 -420l51 82q73 -31 156 -31q48 0 89 19.5t48 66.5q5 37 -11 57.5t-46.5 24t-61.5 0t-65 -13.5l-37 37l149 178h101l-109 -125h59q77 2 127.5 -36.5t40.5 -110.5q-7 -52 -35.5 -91.5t-69.5 -61t-85.5 -32t-91.5 -10.5q-119 0 -209 47z" />
    <glyph glyph-name="onesuperior" unicode="&#xb9;" horiz-adv-x="739" 
d="M399 592l103 735l-195 -147l-74 94l291 201h146l-123 -883h-148z" />
    <glyph glyph-name="ordmasculine" unicode="&#xba;" horiz-adv-x="790" 
d="M602 1475q153 0 233 -85t60 -225t-123 -223.5t-256 -83.5q-154 0 -233.5 83.5t-59.5 223.5t123 225t256 85zM586 1352q-89 0 -146 -50.5t-69 -136.5t29.5 -135t131.5 -49t147 49t69 135t-30.5 136.5t-131.5 50.5z" />
    <glyph glyph-name="guillemotright" unicode="&#xbb;" horiz-adv-x="1024" 
d="M762 940l235 -442l-358 -443l-115 84l289 359l-190 358zM356 940l236 -442l-359 -443l-114 84l289 359l-191 358z" />
    <glyph glyph-name="onequarter" unicode="&#xbc;" horiz-adv-x="1708" 
d="M1378 0l27 193h-401l16 118l457 572h161l-79 -555h127l-19 -135h-127l-27 -193h-135zM1411 328l55 383h-4l-293 -383h242zM311 0l1112 1516l115 -66l-1112 -1516zM412 592l102 735l-195 -147l-73 94l291 201h145l-123 -883h-147z" />
    <glyph glyph-name="onehalf" unicode="&#xbd;" horiz-adv-x="1708" 
d="M408 592l102 735l-195 -147l-73 94l290 201h146l-123 -883h-147zM1012 0l22 156l412 327q30 23 49.5 42t39.5 49t24 59q7 53 -26.5 84t-90.5 31q-59 0 -101.5 -33t-54.5 -88l-170 12q27 117 121 180.5t225 63.5q134 0 211 -63.5t60 -182.5q-11 -76 -57 -134t-126 -120
l-323 -248h436l-18 -135h-633zM287 0l1112 1516l114 -66l-1112 -1516z" />
    <glyph glyph-name="threequarters" unicode="&#xbe;" horiz-adv-x="1708" 
d="M1419 0l27 193h-402l17 118l457 572h161l-80 -555h127l-18 -135h-127l-27 -193h-135zM1464 328l56 383h-4l-293 -383h241zM393 0l1112 1516l115 -66l-1112 -1516zM422 977l18 135h37q40 0 69 4t59.5 15.5t49 36t23.5 61.5q7 49 -25.5 79.5t-91.5 30.5q-50 0 -90 -24
t-63 -68l-166 41q42 93 130.5 140t198.5 47q129 0 207 -60.5t62 -169.5q-9 -71 -60 -125t-127 -71v-5q85 -10 124.5 -69t27.5 -141q-17 -118 -118 -186t-234 -68q-123 0 -202 49.5t-93 152.5l176 41q16 -108 137 -108q65 0 117 37t59 94q6 40 -8.5 68t-44.5 41t-63 18t-74 4
h-35z" />
    <glyph glyph-name="questiondown" unicode="&#xbf;" horiz-adv-x="1024" 
d="M479 590h197l-17 -125q-7 -54 -17.5 -89t-35 -67.5t-45.5 -52t-73 -63.5q-8 -7 -13 -11q-11 -9 -48.5 -40.5t-52 -44t-42.5 -41.5t-41 -49.5t-26 -49.5t-17 -59q-13 -93 41 -155t145 -62q98 0 171 63t100 166l204 -21q-51 -177 -186.5 -279t-316.5 -102
q-178 0 -279.5 101.5t-77.5 277.5q10 77 42.5 141.5t78.5 104.5l164 146q76 68 99 103.5t34 117.5zM756 872q-7 -55 -52.5 -95t-101.5 -40t-90 40t-27 95q8 56 53.5 96t100.5 40t90 -40t27 -96z" />
    <glyph glyph-name="Agrave" unicode="&#xc0;" horiz-adv-x="1441" 
d="M2 0l844 1450h178l416 -1450h-230l-94 358h-690l-195 -358h-229zM518 530h549l-176 666h-4zM899 1827l172 -295h-170l-264 295h262z" />
    <glyph glyph-name="Aacute" unicode="&#xc1;" horiz-adv-x="1441" 
d="M2 0l844 1450h178l416 -1450h-230l-94 358h-690l-195 -358h-229zM518 530h549l-176 666h-4zM801 1532l254 295h262l-346 -295h-170z" />
    <glyph glyph-name="Acircumflex" unicode="&#xc2;" horiz-adv-x="1441" 
d="M2 0l844 1450h178l416 -1450h-230l-94 358h-690l-195 -358h-229zM518 530h549l-176 666h-4zM1274 1532h-187l-122 197l-181 -197h-186l270 295h217z" />
    <glyph glyph-name="Atilde" unicode="&#xc3;" horiz-adv-x="1441" 
d="M2 0l844 1450h178l416 -1450h-230l-94 358h-690l-195 -358h-229zM518 530h549l-176 666h-4zM694 1556h-98q28 89 89 151t146 62q62 0 166 -47q9 -4 26 -12t26.5 -11.5t24.5 -7t30 -3.5q76 0 113 90h98q-27 -90 -83 -151.5t-140 -61.5q-55 0 -160 43q-7 3 -23.5 10t-26 11
t-24 9t-28.5 7t-27 2q-35 0 -63.5 -26.5t-45.5 -64.5z" />
    <glyph glyph-name="Adieresis" unicode="&#xc4;" horiz-adv-x="1441" 
d="M2 0l844 1450h178l416 -1450h-230l-94 358h-690l-195 -358h-229zM518 530h549l-176 666h-4zM770 1839q49 0 83.5 -34t27.5 -83q-8 -56 -49.5 -92.5t-96.5 -36.5t-85.5 36.5t-22.5 92.5q7 49 50.5 83t92.5 34zM1188 1839q49 0 83 -34t27 -83q-8 -56 -49 -92.5t-96 -36.5
t-86 36.5t-23 92.5q7 49 51 83t93 34z" />
    <glyph glyph-name="Aring" unicode="&#xc5;" horiz-adv-x="1441" 
d="M2 0l844 1450h178l416 -1450h-230l-94 358h-690l-195 -358h-229zM518 530h549l-176 666h-4zM750 1690q12 85 82 143.5t155 58.5q87 0 140 -58t40 -142q-10 -85 -80 -144t-157 -59q-84 0 -138 58.5t-42 142.5zM1081 1690q7 50 -24 83t-82 33q-50 0 -91 -33t-48 -83
q-7 -48 25 -81.5t81 -33.5q48 0 90 33.5t49 81.5z" />
    <glyph glyph-name="AE" unicode="&#xc6;" horiz-adv-x="1972" 
d="M-16 0l1142 1450h934l-26 -184h-604l-62 -432h567l-24 -185h-568l-65 -465h629l-27 -184h-825l49 352h-623l-256 -352h-241zM614 537h516l103 729h-39z" />
    <glyph glyph-name="Ccedilla" unicode="&#xc7;" horiz-adv-x="1441" 
d="M1538 1262l-182 -125q-50 78 -138.5 122t-189.5 44q-120 0 -228 -46t-188 -125t-134 -187.5t-72 -231.5q-22 -154 23.5 -281.5t159 -206t277.5 -78.5q242 0 406 195l149 -125q-20 -23 -48.5 -49.5t-84 -65t-117.5 -67.5t-151.5 -50.5t-183.5 -21.5q-17 0 -25 2l-80 -90
h60q77 2 127 -36.5t40 -110.5q-7 -52 -35.5 -91.5t-69.5 -61t-85.5 -32t-91.5 -10.5q-119 0 -209 47l51 82q73 -31 156 -31q48 0 89 19.5t48 66.5q5 37 -11 57.5t-46.5 24t-61.5 0t-65 -13.5l-37 37l127 151q-138 21 -247.5 93.5t-173.5 174.5t-90.5 224.5t-8.5 247.5
q31 223 151 399.5t306.5 275.5t406.5 99q150 0 279 -57t198 -168z" />
    <glyph glyph-name="Egrave" unicode="&#xc8;" horiz-adv-x="1251" 
d="M186 0l205 1450h936l-27 -184h-739l-61 -432h688l-25 -185h-688l-65 -465h776l-27 -184h-973zM805 1827l172 -295h-170l-264 295h262z" />
    <glyph glyph-name="Eacute" unicode="&#xc9;" horiz-adv-x="1251" 
d="M186 0l205 1450h936l-27 -184h-739l-61 -432h688l-25 -185h-688l-65 -465h776l-27 -184h-973zM707 1532l254 295h262l-346 -295h-170z" />
    <glyph glyph-name="Ecircumflex" unicode="&#xca;" horiz-adv-x="1251" 
d="M186 0l205 1450h936l-27 -184h-739l-61 -432h688l-25 -185h-688l-65 -465h776l-27 -184h-973zM1180 1532h-187l-123 197l-180 -197h-186l270 295h217z" />
    <glyph glyph-name="Edieresis" unicode="&#xcb;" horiz-adv-x="1251" 
d="M186 0l205 1450h936l-27 -184h-739l-61 -432h688l-25 -185h-688l-65 -465h776l-27 -184h-973zM676 1839q49 0 83 -34t27 -83q-8 -56 -49 -92.5t-96 -36.5t-86 36.5t-23 92.5q7 49 51 83t93 34zM1094 1839q49 0 83 -34t27 -83q-8 -56 -49 -92.5t-96 -36.5t-86 36.5
t-23 92.5q7 49 51 83t93 34z" />
    <glyph glyph-name="Igrave" unicode="&#xcc;" horiz-adv-x="569" 
d="M186 0l205 1450h197l-205 -1450h-197zM463 1827l172 -295h-170l-264 295h262z" />
    <glyph glyph-name="Iacute" unicode="&#xcd;" horiz-adv-x="569" 
d="M186 0l205 1450h197l-205 -1450h-197zM365 1532l253 295h263l-346 -295h-170z" />
    <glyph glyph-name="Icircumflex" unicode="&#xce;" horiz-adv-x="569" 
d="M186 0l205 1450h197l-205 -1450h-197zM838 1532h-187l-123 197l-180 -197h-186l270 295h217z" />
    <glyph glyph-name="Idieresis" unicode="&#xcf;" horiz-adv-x="569" 
d="M186 0l205 1450h197l-205 -1450h-197zM334 1839q49 0 83 -34t27 -83q-8 -56 -49 -92.5t-96 -36.5t-86 36.5t-23 92.5q7 49 51 83t93 34zM752 1839q49 0 83 -34t27 -83q-8 -56 -49 -92.5t-96 -36.5t-86 36.5t-23 92.5q7 49 51 83t93 34z" />
    <glyph glyph-name="Eth" unicode="&#xd0;" horiz-adv-x="1517" 
d="M154 0l96 688h-148l21 135h147l88 627h506q99 0 184.5 -16t150 -44.5t117 -68t88 -85.5t61.5 -98.5t40.5 -105t20.5 -108t5 -104t-7 -95.5q-20 -141 -90.5 -270t-182.5 -231t-274 -163t-350 -61h-473zM446 688l-69 -504h248q126 0 241 35t209 101t157.5 170.5t82.5 234.5
q5 37 5 76t-5 86t-20.5 90.5t-39.5 87t-63 79t-89.5 63.5t-122 43.5t-157.5 15.5h-295l-61 -443h479l-20 -135h-480z" />
    <glyph glyph-name="Ntilde" unicode="&#xd1;" horiz-adv-x="1630" 
d="M186 0l205 1450h258l631 -1192h4l168 1192h197l-205 -1450h-250l-639 1192h-4l-168 -1192h-197zM788 1556h-98q28 88 89.5 150.5t146.5 62.5q62 0 166 -47q10 -4 26.5 -11.5t25.5 -11.5t24 -7.5t30 -3.5q76 0 113 90h98q-27 -90 -83 -151.5t-140 -61.5q-55 0 -160 43
q-7 3 -23.5 10t-26 11t-24 9t-28.5 7t-27 2q-35 0 -63.5 -26.5t-45.5 -64.5z" />
    <glyph glyph-name="Ograve" unicode="&#xd2;" horiz-adv-x="1703" 
d="M846 -37q-217 0 -376 100.5t-230 274.5t-41 387q29 213 149.5 387t308 274.5t404.5 100.5t376 -100.5t230.5 -274.5t42.5 -387q-23 -159 -99 -300t-189.5 -242.5t-263 -160.5t-312.5 -59zM872 147q162 0 299 78.5t222 209.5t108 290q17 118 -7.5 224t-84 184t-156.5 124
t-219 46t-231.5 -46t-190 -124.5t-134 -184t-70.5 -223.5q-23 -159 25 -290t162.5 -209.5t276.5 -78.5zM1030 1827l172 -295h-170l-264 295h262z" />
    <glyph glyph-name="Oacute" unicode="&#xd3;" horiz-adv-x="1703" 
d="M846 -37q-217 0 -376 100.5t-230 274.5t-41 387q29 213 149.5 387t308 274.5t404.5 100.5t376 -100.5t230.5 -274.5t42.5 -387q-23 -159 -99 -300t-189.5 -242.5t-263 -160.5t-312.5 -59zM872 147q162 0 299 78.5t222 209.5t108 290q17 118 -7.5 224t-84 184t-156.5 124
t-219 46t-231.5 -46t-190 -124.5t-134 -184t-70.5 -223.5q-23 -159 25 -290t162.5 -209.5t276.5 -78.5zM932 1532l254 295h262l-346 -295h-170z" />
    <glyph glyph-name="Ocircumflex" unicode="&#xd4;" horiz-adv-x="1703" 
d="M846 -37q-217 0 -376 100.5t-230 274.5t-41 387q29 213 149.5 387t308 274.5t404.5 100.5t376 -100.5t230.5 -274.5t42.5 -387q-23 -159 -99 -300t-189.5 -242.5t-263 -160.5t-312.5 -59zM872 147q162 0 299 78.5t222 209.5t108 290q17 118 -7.5 224t-84 184t-156.5 124
t-219 46t-231.5 -46t-190 -124.5t-134 -184t-70.5 -223.5q-23 -159 25 -290t162.5 -209.5t276.5 -78.5zM1405 1532h-186l-123 197l-181 -197h-186l270 295h218z" />
    <glyph glyph-name="Otilde" unicode="&#xd5;" horiz-adv-x="1703" 
d="M846 -37q-217 0 -376 100.5t-230 274.5t-41 387q29 213 149.5 387t308 274.5t404.5 100.5t376 -100.5t230.5 -274.5t42.5 -387q-23 -159 -99 -300t-189.5 -242.5t-263 -160.5t-312.5 -59zM872 147q162 0 299 78.5t222 209.5t108 290q17 118 -7.5 224t-84 184t-156.5 124
t-219 46t-231.5 -46t-190 -124.5t-134 -184t-70.5 -223.5q-23 -159 25 -290t162.5 -209.5t276.5 -78.5zM825 1556h-98q28 88 89.5 150.5t146.5 62.5q61 0 165 -47q9 -4 26 -12t26.5 -11.5t24.5 -7t30 -3.5q76 0 113 90h98q-27 -90 -83 -151.5t-140 -61.5q-55 0 -160 43
q-7 3 -23.5 10t-26 11t-24 9t-28.5 7t-27 2q-35 0 -63.5 -26.5t-45.5 -64.5z" />
    <glyph glyph-name="Odieresis" unicode="&#xd6;" horiz-adv-x="1703" 
d="M846 -37q-217 0 -376 100.5t-230 274.5t-41 387q29 213 149.5 387t308 274.5t404.5 100.5t376 -100.5t230.5 -274.5t42.5 -387q-23 -159 -99 -300t-189.5 -242.5t-263 -160.5t-312.5 -59zM872 147q162 0 299 78.5t222 209.5t108 290q17 118 -7.5 224t-84 184t-156.5 124
t-219 46t-231.5 -46t-190 -124.5t-134 -184t-70.5 -223.5q-23 -159 25 -290t162.5 -209.5t276.5 -78.5zM901 1839q49 0 83.5 -34t27.5 -83q-8 -56 -49.5 -92.5t-96.5 -36.5t-85.5 36.5t-22.5 92.5q7 49 50.5 83t92.5 34zM1319 1839q49 0 83.5 -34t27.5 -83
q-8 -56 -49.5 -92.5t-96.5 -36.5t-85.5 36.5t-22.5 92.5q7 49 50.5 83t92.5 34z" />
    <glyph glyph-name="multiply" unicode="&#xd7;" horiz-adv-x="1363" 
d="M166 188l491 433l-374 434l129 112l372 -434l498 434l94 -112l-493 -434l372 -435l-131 -112l-370 434l-494 -434z" />
    <glyph glyph-name="Oslash" unicode="&#xd8;" horiz-adv-x="1703" 
d="M1427 1106l-886 -838q131 -121 331 -121q162 0 299 78.5t222 209.5t108 290q31 224 -74 381zM473 354l885 834q-131 115 -324 115q-122 0 -231.5 -46t-190 -124.5t-134 -184t-70.5 -223.5q-30 -215 65 -371zM193 -61l-78 77l200 191q-77 102 -107.5 234.5t-8.5 283.5
q29 213 149.5 387t308 274.5t404.5 100.5q268 0 448 -156l197 185l76 -78l-197 -185q81 -101 113.5 -237t11.5 -291q-23 -159 -99 -300t-189.5 -242.5t-263 -160.5t-312.5 -59q-276 0 -455 162z" />
    <glyph glyph-name="Ugrave" unicode="&#xd9;" horiz-adv-x="1441" 
d="M365 1450h196l-125 -889q-9 -45 -6 -93t12 -94t33.5 -87.5t58.5 -72.5t87.5 -49t119.5 -18q98 0 177 38.5t128.5 102t78.5 132t40 141.5l125 889h197l-131 -920q-35 -249 -217.5 -408t-423.5 -159q-158 0 -275.5 71t-173.5 201t-33 295zM899 1827l172 -295h-170l-264 295
h262z" />
    <glyph glyph-name="Uacute" unicode="&#xda;" horiz-adv-x="1441" 
d="M365 1450h196l-125 -889q-9 -45 -6 -93t12 -94t33.5 -87.5t58.5 -72.5t87.5 -49t119.5 -18q98 0 177 38.5t128.5 102t78.5 132t40 141.5l125 889h197l-131 -920q-35 -249 -217.5 -408t-423.5 -159q-158 0 -275.5 71t-173.5 201t-33 295zM801 1532l254 295h262l-346 -295
h-170z" />
    <glyph glyph-name="Ucircumflex" unicode="&#xdb;" horiz-adv-x="1441" 
d="M365 1450h196l-125 -889q-9 -45 -6 -93t12 -94t33.5 -87.5t58.5 -72.5t87.5 -49t119.5 -18q98 0 177 38.5t128.5 102t78.5 132t40 141.5l125 889h197l-131 -920q-35 -249 -217.5 -408t-423.5 -159q-158 0 -275.5 71t-173.5 201t-33 295zM1274 1532h-187l-122 197
l-181 -197h-186l270 295h217z" />
    <glyph glyph-name="Udieresis" unicode="&#xdc;" horiz-adv-x="1441" 
d="M365 1450h196l-125 -889q-9 -45 -6 -93t12 -94t33.5 -87.5t58.5 -72.5t87.5 -49t119.5 -18q98 0 177 38.5t128.5 102t78.5 132t40 141.5l125 889h197l-131 -920q-35 -249 -217.5 -408t-423.5 -159q-158 0 -275.5 71t-173.5 201t-33 295zM770 1839q49 0 83.5 -34t27.5 -83
q-8 -56 -49.5 -92.5t-96.5 -36.5t-85.5 36.5t-22.5 92.5q7 49 50.5 83t92.5 34zM1188 1839q49 0 83 -34t27 -83q-8 -56 -49 -92.5t-96 -36.5t-86 36.5t-23 92.5q7 49 51 83t93 34z" />
    <glyph glyph-name="Yacute" unicode="&#xdd;" horiz-adv-x="1253" 
d="M528 0l86 618l-430 832h252l305 -637l498 637h240l-668 -832l-86 -618h-197zM707 1532l254 295h262l-346 -295h-170z" />
    <glyph glyph-name="Thorn" unicode="&#xde;" horiz-adv-x="1214" 
d="M186 0l205 1450h197l-43 -297h313q77 0 140.5 -13t107 -35.5t77 -53.5t51 -67t28.5 -76t9.5 -80.5t-5.5 -79.5q-8 -59 -28 -112.5t-60.5 -108.5t-97 -95t-143.5 -65t-194 -25h-313l-47 -342h-197zM520 981l-65 -467h258q51 0 93.5 5t87 20.5t76.5 40.5t55.5 68t31.5 100
t-3.5 99.5t-36.5 67.5t-65.5 40.5t-81.5 20.5t-92 5h-258z" />
    <glyph glyph-name="germandbls" unicode="&#xdf;" horiz-adv-x="1251" 
d="M139 0l148 1042q13 93 34 167t61 144t96.5 117t143.5 75t199 28q116 0 203 -41.5t132.5 -127t29.5 -202.5q-18 -123 -90 -204.5t-183 -112.5l-2 -4q63 -10 118.5 -40t100 -80t64.5 -130.5t6 -179.5q-20 -144 -99.5 -252.5t-200 -166t-263.5 -57.5q-70 0 -141 19l22 166
q54 -13 107 -13q153 0 256.5 85t124.5 235q22 156 -65.5 236.5t-246.5 80.5h-28l24 172h33q105 0 177 61t85 163q16 114 -44.5 167.5t-154.5 53.5q-60 0 -108.5 -16.5t-82.5 -46t-59 -72.5t-40 -92t-23 -109l-149 -1065h-185z" />
    <glyph glyph-name="agrave" unicode="&#xe0;" horiz-adv-x="1062" 
d="M358 737l-96 115q85 70 193 106.5t213 36.5q104 0 180.5 -26.5t117.5 -72.5t56.5 -102.5t5.5 -121.5l-70 -496q-12 -84 -16 -176h-164q1 37 15 147h-5q-71 -91 -160.5 -131.5t-203.5 -40.5q-142 0 -228 78t-67 213q13 91 63.5 157.5t131 104.5t176.5 56t211 18h135l6 41
q12 83 -40 144t-163 61q-21 0 -41 -2t-35.5 -4t-35 -8.5t-30 -9.5t-29.5 -13t-25.5 -12.5t-26.5 -15.5t-22.5 -14.5t-23.5 -16.5t-22 -15zM827 467h-98q-387 0 -414 -186q-10 -81 39 -119.5t148 -38.5q73 0 132.5 25.5t96.5 67.5t59 90t29 100zM659 1450l170 -295h-170
l-262 295h262z" />
    <glyph glyph-name="aacute" unicode="&#xe1;" horiz-adv-x="1062" 
d="M358 737l-96 115q85 70 193 106.5t213 36.5q104 0 180.5 -26.5t117.5 -72.5t56.5 -102.5t5.5 -121.5l-70 -496q-12 -84 -16 -176h-164q1 37 15 147h-5q-71 -91 -160.5 -131.5t-203.5 -40.5q-142 0 -228 78t-67 213q13 91 63.5 157.5t131 104.5t176.5 56t211 18h135l6 41
q12 83 -40 144t-163 61q-21 0 -41 -2t-35.5 -4t-35 -8.5t-30 -9.5t-29.5 -13t-25.5 -12.5t-26.5 -15.5t-22.5 -14.5t-23.5 -16.5t-22 -15zM827 467h-98q-387 0 -414 -186q-10 -81 39 -119.5t148 -38.5q73 0 132.5 25.5t96.5 67.5t59 90t29 100zM559 1155l256 295h262
l-348 -295h-170z" />
    <glyph glyph-name="acircumflex" unicode="&#xe2;" horiz-adv-x="1062" 
d="M358 737l-96 115q85 70 193 106.5t213 36.5q104 0 180.5 -26.5t117.5 -72.5t56.5 -102.5t5.5 -121.5l-70 -496q-12 -84 -16 -176h-164q1 37 15 147h-5q-71 -91 -160.5 -131.5t-203.5 -40.5q-142 0 -228 78t-67 213q13 91 63.5 157.5t131 104.5t176.5 56t211 18h135l6 41
q12 83 -40 144t-163 61q-21 0 -41 -2t-35.5 -4t-35 -8.5t-30 -9.5t-29.5 -13t-25.5 -12.5t-26.5 -15.5t-22.5 -14.5t-23.5 -16.5t-22 -15zM827 467h-98q-387 0 -414 -186q-10 -81 39 -119.5t148 -38.5q73 0 132.5 25.5t96.5 67.5t59 90t29 100zM1032 1155h-186l-123 197
l-180 -197h-187l273 295h217z" />
    <glyph glyph-name="atilde" unicode="&#xe3;" horiz-adv-x="1062" 
d="M358 737l-96 115q85 70 193 106.5t213 36.5q104 0 180.5 -26.5t117.5 -72.5t56.5 -102.5t5.5 -121.5l-70 -496q-12 -84 -16 -176h-164q1 37 15 147h-5q-71 -91 -160.5 -131.5t-203.5 -40.5q-142 0 -228 78t-67 213q13 91 63.5 157.5t131 104.5t176.5 56t211 18h135l6 41
q12 83 -40 144t-163 61q-21 0 -41 -2t-35.5 -4t-35 -8.5t-30 -9.5t-29.5 -13t-25.5 -12.5t-26.5 -15.5t-22.5 -14.5t-23.5 -16.5t-22 -15zM827 467h-98q-387 0 -414 -186q-10 -81 39 -119.5t148 -38.5q73 0 132.5 25.5t96.5 67.5t59 90t29 100zM453 1180h-99q27 88 90 150.5
t148 62.5q60 0 164 -47q9 -3 32.5 -14.5t38.5 -16t35 -4.5q76 0 113 90h98q-27 -90 -82.5 -151.5t-138.5 -61.5q-57 0 -162 43q-3 1 -18.5 8t-21.5 9.5t-20 7.5t-23.5 7.5t-22 4.5t-23.5 2q-35 0 -63 -26t-45 -64z" />
    <glyph glyph-name="adieresis" unicode="&#xe4;" horiz-adv-x="1062" 
d="M358 737l-96 115q85 70 193 106.5t213 36.5q104 0 180.5 -26.5t117.5 -72.5t56.5 -102.5t5.5 -121.5l-70 -496q-12 -84 -16 -176h-164q1 37 15 147h-5q-71 -91 -160.5 -131.5t-203.5 -40.5q-142 0 -228 78t-67 213q13 91 63.5 157.5t131 104.5t176.5 56t211 18h135l6 41
q12 83 -40 144t-163 61q-21 0 -41 -2t-35.5 -4t-35 -8.5t-30 -9.5t-29.5 -13t-25.5 -12.5t-26.5 -15.5t-22.5 -14.5t-23.5 -16.5t-22 -15zM827 467h-98q-387 0 -414 -186q-10 -81 39 -119.5t148 -38.5q73 0 132.5 25.5t96.5 67.5t59 90t29 100zM528 1462q49 0 83.5 -33.5
t27.5 -82.5q-8 -56 -49 -92.5t-96 -36.5t-86 36.5t-23 92.5q7 49 50.5 82.5t92.5 33.5zM946 1462q49 0 83.5 -33.5t27.5 -82.5q-8 -56 -49.5 -92.5t-96.5 -36.5t-85.5 36.5t-22.5 92.5q7 49 50.5 82.5t92.5 33.5z" />
    <glyph glyph-name="aring" unicode="&#xe5;" horiz-adv-x="1062" 
d="M358 737l-96 115q85 70 193 106.5t213 36.5q104 0 180.5 -26.5t117.5 -72.5t56.5 -102.5t5.5 -121.5l-70 -496q-12 -84 -16 -176h-164q1 37 15 147h-5q-71 -91 -160.5 -131.5t-203.5 -40.5q-142 0 -228 78t-67 213q13 91 63.5 157.5t131 104.5t176.5 56t211 18h135l6 41
q12 83 -40 144t-163 61q-21 0 -41 -2t-35.5 -4t-35 -8.5t-30 -9.5t-29.5 -13t-25.5 -12.5t-26.5 -15.5t-22.5 -14.5t-23.5 -16.5t-22 -15zM827 467h-98q-387 0 -414 -186q-10 -81 39 -119.5t148 -38.5q73 0 132.5 25.5t96.5 67.5t59 90t29 100zM510 1333q12 85 82.5 144
t155.5 59q87 0 140.5 -58.5t41.5 -142.5q-10 -85 -80.5 -143.5t-157.5 -58.5q-84 0 -138 58t-44 142zM842 1333q7 50 -24 83.5t-81 33.5q-51 0 -92.5 -33.5t-48.5 -83.5q-6 -48 27 -81t82 -33t90 33t47 81z" />
    <glyph glyph-name="ae" unicode="&#xe6;" horiz-adv-x="1744" 
d="M1737 504l-13 -86h-723q-18 -123 49 -209t201 -86q84 0 155.5 42t119.5 111l133 -112q-102 -102 -204 -151.5t-230 -49.5q-260 0 -351 199q-171 -199 -425 -199q-94 0 -164.5 27t-108 72t-52 99.5t-5.5 114.5q12 82 55 141t108 90t134 44.5t147 13.5h287l4 31
q14 109 -40 180.5t-169 71.5q-80 0 -146.5 -27t-142.5 -84l-98 117q84 68 192.5 104.5t213.5 36.5q109 0 196.5 -37t130.5 -118q159 155 361 155q77 0 139.5 -18.5t103.5 -49.5t71 -73t46 -86.5t23.5 -93.5t7 -90.5t-5.5 -79.5zM829 418h-290q-105 0 -159 -35t-65 -107
q-9 -70 44 -117.5t137 -47.5q119 0 215 76t114 202zM1022 565h526q13 123 -38.5 197t-182.5 74q-125 0 -207 -77t-98 -194z" />
    <glyph glyph-name="ccedilla" unicode="&#xe7;" horiz-adv-x="987" 
d="M1092 840l-158 -127q-44 55 -98 81.5t-129 26.5q-144 0 -237.5 -99.5t-113.5 -244.5q-21 -139 53 -234.5t214 -95.5q142 0 251 109l113 -131q-150 -145 -375 -148l-88 -102h60q77 2 127.5 -36.5t40.5 -110.5q-9 -68 -56.5 -114t-105 -63.5t-121.5 -17.5q-119 0 -209 47
l51 82q73 -31 156 -31q48 0 89 19.5t48 66.5q5 37 -11 57.5t-46.5 24t-61.5 0t-65 -13.5l-37 37l135 162q-190 23 -288.5 158.5t-69.5 338.5q32 226 192.5 369t386.5 143q109 0 201 -38.5t152 -114.5z" />
    <glyph glyph-name="egrave" unicode="&#xe8;" 
d="M1116 418h-778q-18 -124 68.5 -203.5t218.5 -79.5q147 0 286 146l125 -107q-181 -199 -458 -199q-226 0 -342.5 144.5t-85.5 365.5q31 219 193.5 364.5t379.5 145.5q83 0 151 -20.5t113 -56.5t78 -85t46.5 -106t18.5 -119t-6 -125zM358 565h582q14 127 -47 205t-195 78
q-129 0 -227 -89.5t-113 -193.5zM696 1450l170 -295h-170l-262 295h262z" />
    <glyph glyph-name="eacute" unicode="&#xe9;" 
d="M1116 418h-778q-18 -124 68.5 -203.5t218.5 -79.5q147 0 286 146l125 -107q-181 -199 -458 -199q-226 0 -342.5 144.5t-85.5 365.5q31 219 193.5 364.5t379.5 145.5q83 0 151 -20.5t113 -56.5t78 -85t46.5 -106t18.5 -119t-6 -125zM358 565h582q14 127 -47 205t-195 78
q-129 0 -227 -89.5t-113 -193.5zM596 1155l256 295h262l-348 -295h-170z" />
    <glyph glyph-name="ecircumflex" unicode="&#xea;" 
d="M1116 418h-778q-18 -124 68.5 -203.5t218.5 -79.5q147 0 286 146l125 -107q-181 -199 -458 -199q-226 0 -342.5 144.5t-85.5 365.5q31 219 193.5 364.5t379.5 145.5q83 0 151 -20.5t113 -56.5t78 -85t46.5 -106t18.5 -119t-6 -125zM358 565h582q14 127 -47 205t-195 78
q-129 0 -227 -89.5t-113 -193.5zM1069 1155h-186l-123 197l-180 -197h-187l273 295h217z" />
    <glyph glyph-name="edieresis" unicode="&#xeb;" 
d="M1116 418h-778q-18 -124 68.5 -203.5t218.5 -79.5q147 0 286 146l125 -107q-181 -199 -458 -199q-226 0 -342.5 144.5t-85.5 365.5q31 219 193.5 364.5t379.5 145.5q83 0 151 -20.5t113 -56.5t78 -85t46.5 -106t18.5 -119t-6 -125zM358 565h582q14 127 -47 205t-195 78
q-129 0 -227 -89.5t-113 -193.5zM565 1462q49 0 83.5 -33.5t27.5 -82.5q-8 -56 -49.5 -92.5t-96.5 -36.5t-85.5 36.5t-22.5 92.5q7 49 50.5 82.5t92.5 33.5zM983 1462q49 0 83.5 -33.5t27.5 -82.5q-8 -56 -49.5 -92.5t-96.5 -36.5t-85.5 36.5t-22.5 92.5q7 49 50.5 82.5
t92.5 33.5z" />
    <glyph glyph-name="igrave" unicode="&#xec;" horiz-adv-x="491" 
d="M154 0l137 971h184l-137 -971h-184zM373 1450l170 -295h-170l-262 295h262z" />
    <glyph glyph-name="iacute" unicode="&#xed;" horiz-adv-x="491" 
d="M154 0l137 971h184l-137 -971h-184zM272 1155l256 295h263l-349 -295h-170z" />
    <glyph glyph-name="icircumflex" unicode="&#xee;" horiz-adv-x="491" 
d="M154 0l137 971h184l-137 -971h-184zM745 1155h-186l-123 197l-180 -197h-186l272 295h217z" />
    <glyph glyph-name="idieresis" unicode="&#xef;" horiz-adv-x="491" 
d="M154 0l137 971h184l-137 -971h-184zM242 1462q49 0 83 -33.5t27 -82.5q-8 -56 -49 -92.5t-96 -36.5t-86 36.5t-23 92.5q7 49 51 82.5t93 33.5zM659 1462q49 0 83.5 -33.5t27.5 -82.5q-8 -56 -49 -92.5t-96 -36.5t-86 36.5t-23 92.5q7 49 50.5 82.5t92.5 33.5z" />
    <glyph glyph-name="eth" unicode="&#xf0;" horiz-adv-x="1216" 
d="M1083 1548l95 -90l-246 -112q48 -60 86 -115t74 -120t59 -127t41 -135t18.5 -144t-8.5 -154q-37 -263 -196.5 -419.5t-401.5 -156.5q-142 0 -251 68t-160.5 185t-32.5 257q31 213 201.5 361.5t386.5 148.5q167 0 241 -102l6 4q-73 172 -243 369l-234 -107l-84 94l232 109
l-154 145l176 95l160 -160zM356 485q-21 -150 53 -244t220 -94t245.5 94t120.5 244q22 150 -51 244t-219 94t-246.5 -94t-122.5 -244z" />
    <glyph glyph-name="ntilde" unicode="&#xf1;" 
d="M139 0l137 971h185l-23 -150h4q46 78 139.5 126t204.5 48q152 0 239.5 -93.5t61.5 -276.5l-88 -625h-184l80 573q19 128 -34.5 189t-149.5 61q-122 0 -208 -80.5t-110 -242.5l-69 -500h-185zM489 1180h-98q27 88 90 150.5t148 62.5q60 0 164 -47q9 -3 32.5 -14.5
t38.5 -16t35 -4.5q76 0 113 90h98q-27 -90 -82.5 -151.5t-138.5 -61.5q-57 0 -162 43q-3 1 -18.5 8t-21.5 9.5t-20 7.5t-23.5 7.5t-22 4.5t-23.5 2q-36 0 -64 -26t-45 -64z" />
    <glyph glyph-name="ograve" unicode="&#xf2;" horiz-adv-x="1216" 
d="M356 485q-21 -150 53 -244t220 -94t245.5 94t120.5 244q22 150 -51 244t-219 94t-246.5 -94t-122.5 -244zM160 485q31 213 201.5 361.5t386.5 148.5q142 0 251.5 -68t161 -185.5t31.5 -256.5q-19 -139 -104 -256.5t-213.5 -185.5t-270.5 -68t-251 68t-160.5 185
t-32.5 257zM735 1450l170 -295h-170l-262 295h262z" />
    <glyph glyph-name="oacute" unicode="&#xf3;" horiz-adv-x="1216" 
d="M356 485q-21 -150 53 -244t220 -94t245.5 94t120.5 244q22 150 -51 244t-219 94t-246.5 -94t-122.5 -244zM160 485q31 213 201.5 361.5t386.5 148.5q142 0 251.5 -68t161 -185.5t31.5 -256.5q-19 -139 -104 -256.5t-213.5 -185.5t-270.5 -68t-251 68t-160.5 185
t-32.5 257zM635 1155l256 295h262l-348 -295h-170z" />
    <glyph glyph-name="ocircumflex" unicode="&#xf4;" horiz-adv-x="1216" 
d="M356 485q-21 -150 53 -244t220 -94t245.5 94t120.5 244q22 150 -51 244t-219 94t-246.5 -94t-122.5 -244zM160 485q31 213 201.5 361.5t386.5 148.5q142 0 251.5 -68t161 -185.5t31.5 -256.5q-19 -139 -104 -256.5t-213.5 -185.5t-270.5 -68t-251 68t-160.5 185
t-32.5 257zM1108 1155h-186l-123 197l-181 -197h-186l273 295h217z" />
    <glyph glyph-name="otilde" unicode="&#xf5;" horiz-adv-x="1216" 
d="M356 485q-21 -150 53 -244t220 -94t245.5 94t120.5 244q22 150 -51 244t-219 94t-246.5 -94t-122.5 -244zM160 485q31 213 201.5 361.5t386.5 148.5q142 0 251.5 -68t161 -185.5t31.5 -256.5q-19 -139 -104 -256.5t-213.5 -185.5t-270.5 -68t-251 68t-160.5 185
t-32.5 257zM528 1180h-98q27 88 90 150.5t148 62.5q28 0 60 -8t49.5 -15.5t53.5 -23.5q10 -4 26.5 -12t26 -12t24.5 -7.5t30 -3.5q76 0 113 90h98q-27 -90 -82.5 -151.5t-138.5 -61.5q-57 0 -162 43q-3 1 -18.5 8t-21.5 9.5t-20 7.5t-23.5 7.5t-22 4.5t-23.5 2
q-35 0 -63.5 -26t-45.5 -64z" />
    <glyph glyph-name="odieresis" unicode="&#xf6;" horiz-adv-x="1216" 
d="M356 485q-21 -150 53 -244t220 -94t245.5 94t120.5 244q22 150 -51 244t-219 94t-246.5 -94t-122.5 -244zM160 485q31 213 201.5 361.5t386.5 148.5q142 0 251.5 -68t161 -185.5t31.5 -256.5q-19 -139 -104 -256.5t-213.5 -185.5t-270.5 -68t-251 68t-160.5 185
t-32.5 257zM604 1462q49 0 83.5 -33.5t27.5 -82.5q-8 -56 -49.5 -92.5t-96.5 -36.5t-85.5 36.5t-22.5 92.5q7 49 50.5 82.5t92.5 33.5zM1022 1462q49 0 83.5 -33.5t27.5 -82.5q-8 -56 -49.5 -92.5t-96.5 -36.5t-85.5 36.5t-22.5 92.5q7 49 50.5 82.5t92.5 33.5z" />
    <glyph glyph-name="divide" unicode="&#xf7;" horiz-adv-x="1363" 
d="M233 698h1094l-22 -159h-1094zM682 963q7 55 52.5 95t101.5 40q55 0 89.5 -39.5t26.5 -95.5t-53 -96t-100 -40t-90 40t-27 96zM586 274q8 56 53 96t100 40t90 -40t27 -96q-7 -55 -52.5 -95t-101.5 -40q-55 0 -89.5 39.5t-26.5 95.5z" />
    <glyph glyph-name="oslash" unicode="&#xf8;" horiz-adv-x="1216" 
d="M389 276l535 476q-74 71 -199 71q-146 0 -246.5 -94t-122.5 -244q-16 -128 33 -209zM152 -66l-66 74l156 139q-109 138 -82 338q31 213 201.5 361.5t386.5 148.5q194 0 315 -118l176 153l64 -74l-177 -155q90 -136 66 -316q-19 -139 -104 -256.5t-213.5 -185.5
t-270.5 -68q-168 0 -293 101zM977 668l-522 -465q65 -56 174 -56q146 0 245.5 94t120.5 244q16 108 -18 183z" />
    <glyph glyph-name="ugrave" unicode="&#xf9;" 
d="M1137 971l-138 -971h-184l21 150h-5q-47 -78 -140 -126.5t-204 -48.5q-152 0 -238.5 94t-60.5 277l88 625h185l-82 -574q-18 -128 36 -189t150 -61q122 0 208 81t108 243l71 500h185zM696 1450l170 -295h-170l-262 295h262z" />
    <glyph glyph-name="uacute" unicode="&#xfa;" 
d="M1137 971l-138 -971h-184l21 150h-5q-47 -78 -140 -126.5t-204 -48.5q-152 0 -238.5 94t-60.5 277l88 625h185l-82 -574q-18 -128 36 -189t150 -61q122 0 208 81t108 243l71 500h185zM596 1155l256 295h262l-348 -295h-170z" />
    <glyph glyph-name="ucircumflex" unicode="&#xfb;" 
d="M1137 971l-138 -971h-184l21 150h-5q-47 -78 -140 -126.5t-204 -48.5q-152 0 -238.5 94t-60.5 277l88 625h185l-82 -574q-18 -128 36 -189t150 -61q122 0 208 81t108 243l71 500h185zM1069 1155h-186l-123 197l-180 -197h-187l273 295h217z" />
    <glyph glyph-name="udieresis" unicode="&#xfc;" 
d="M1137 971l-138 -971h-184l21 150h-5q-47 -78 -140 -126.5t-204 -48.5q-152 0 -238.5 94t-60.5 277l88 625h185l-82 -574q-18 -128 36 -189t150 -61q122 0 208 81t108 243l71 500h185zM565 1462q49 0 83.5 -33.5t27.5 -82.5q-8 -56 -49.5 -92.5t-96.5 -36.5t-85.5 36.5
t-22.5 92.5q7 49 50.5 82.5t92.5 33.5zM983 1462q49 0 83.5 -33.5t27.5 -82.5q-8 -56 -49.5 -92.5t-96.5 -36.5t-85.5 36.5t-22.5 92.5q7 49 50.5 82.5t92.5 33.5z" />
    <glyph glyph-name="yacute" unicode="&#xfd;" horiz-adv-x="1024" 
d="M426 -6l-266 977h213l182 -758h4l381 758h199l-627 -1180q-39 -73 -69 -117t-74 -86t-100 -61t-130 -19q-93 0 -159 27l47 168q52 -22 106 -22q56 0 96 21.5t62.5 51.5t52.5 86zM539 1155l256 295h262l-348 -295h-170z" />
    <glyph glyph-name="thorn" unicode="&#xfe;" horiz-adv-x="1251" 
d="M74 -467l282 2015h185l-101 -717h4q60 75 158.5 119.5t202.5 44.5q221 0 337 -144.5t85 -365.5q-30 -219 -186.5 -364.5t-378.5 -145.5q-101 0 -187.5 44t-126.5 120h-4l-86 -606h-184zM664 147q146 0 245.5 94t120.5 244q22 150 -51 244t-219 94t-246.5 -94t-122.5 -244
q-21 -150 53 -244t220 -94z" />
    <glyph glyph-name="ydieresis" unicode="&#xff;" horiz-adv-x="1024" 
d="M426 -6l-266 977h213l182 -758h4l381 758h199l-627 -1180q-39 -73 -69 -117t-74 -86t-100 -61t-130 -19q-93 0 -159 27l47 168q52 -22 106 -22q56 0 96 21.5t62.5 51.5t52.5 86zM508 1462q49 0 83 -33.5t27 -82.5q-8 -56 -49 -92.5t-96 -36.5t-85.5 36.5t-22.5 92.5
q7 49 50.5 82.5t92.5 33.5zM926 1462q49 0 83 -33.5t27 -82.5q-8 -56 -49 -92.5t-96 -36.5t-86 36.5t-23 92.5q7 49 51 82.5t93 33.5z" />
    <glyph glyph-name="dotlessi" unicode="&#x131;" horiz-adv-x="491" 
d="M154 0l137 971h184l-137 -971h-184z" />
    <glyph glyph-name="Lslash" unicode="&#x141;" horiz-adv-x="1062" 
d="M186 0l60 428l-164 -129l24 182l166 127l119 842h197l-96 -672l497 385l-26 -182l-496 -383l-57 -414h665l-26 -184h-863z" />
    <glyph glyph-name="lslash" unicode="&#x142;" horiz-adv-x="491" 
d="M154 0l86 610l-183 -159l27 184l182 160l105 753h184l-80 -569l182 158l-26 -185l-180 -157l-113 -795h-184z" />
    <glyph glyph-name="OE" unicode="&#x152;" horiz-adv-x="2009" 
d="M1917 184l-27 -184h-934q-197 0 -348.5 54t-242.5 150.5t-128.5 229.5t-15.5 291q46 331 298.5 528t641.5 197h910l-27 -184h-602l-62 -432h566l-25 -185h-565l-66 -465h627zM1094 184l151 1082h-125q-146 0 -270.5 -43.5t-210.5 -118t-139.5 -172t-69.5 -207.5
q-16 -116 10.5 -214t92 -171.5t177.5 -114.5t259 -41h125z" />
    <glyph glyph-name="oe" unicode="&#x153;" horiz-adv-x="1896" 
d="M1665 276l137 -100q-168 -201 -436 -201q-126 0 -226 47t-145 142q-24 -28 -44 -47.5t-59.5 -48.5t-81.5 -47.5t-105.5 -32t-135.5 -13.5q-153 0 -256.5 67.5t-145 182t-20.5 260.5q31 221 192 365.5t384 144.5q249 0 369 -186q164 186 407 186q206 0 313 -134.5
t76 -352.5l-12 -90h-735q-8 -56 2 -105t38.5 -89.5t82.5 -64.5t129 -24q164 0 272 141zM1161 565h539q7 72 -12.5 134.5t-74.5 105.5t-138 43q-82 0 -153.5 -46t-112 -110t-48.5 -127zM965 485q12 66 0.5 129t-39 112.5t-84.5 79.5t-135 30q-150 0 -245 -98.5t-118 -252.5
q-21 -149 44 -249.5t204 -100.5q90 0 159.5 29t112 80.5t67 111t34.5 129.5z" />
    <glyph glyph-name="Scaron" unicode="&#x160;" 
d="M90 164l182 139q38 -76 115.5 -116t169.5 -40q68 0 136 26t122.5 83t65.5 133q7 53 -11.5 92.5t-56.5 64.5t-89 45t-108 38.5t-113.5 40t-105.5 55.5t-84 79t-49.5 116t-1.5 161q8 53 33 107.5t71.5 108.5t108 96t149 68t187.5 26q133 0 232.5 -36.5t162.5 -129.5
l-180 -145q-30 58 -94.5 92.5t-147.5 34.5q-77 0 -138 -21.5t-96 -56t-54.5 -71t-24.5 -73.5q-8 -58 10.5 -102t56 -71t88.5 -47.5t107.5 -38t113 -37t106 -50t85 -70.5t51 -105t3.5 -148q-19 -137 -102 -240.5t-204 -156t-262 -52.5q-145 0 -260.5 51t-173.5 150zM676 1532
l-189 295h179l133 -197l178 197h186l-270 -295h-217z" />
    <glyph glyph-name="scaron" unicode="&#x161;" horiz-adv-x="909" 
d="M915 836l-157 -109q-63 96 -185 96q-68 0 -119.5 -29t-58.5 -79q-3 -24 3 -44t22 -34.5t32 -24.5t43.5 -18.5t43.5 -12.5t46 -10t38 -8q64 -16 107.5 -35.5t80 -51t50 -80.5t3.5 -115q-11 -79 -53.5 -139.5t-104.5 -96t-132.5 -53t-145.5 -17.5q-126 0 -210 38.5
t-140 133.5l155 115q46 -54 97 -84.5t123 -30.5q78 0 142.5 32t72.5 91q2 18 -0.5 33.5t-12 28t-19 22.5t-26.5 18.5t-29 14t-33.5 11.5t-32 8.5t-32.5 7.5t-28 6q-53 13 -89.5 25.5t-75 34.5t-59.5 49.5t-31.5 70t-2.5 96.5q14 97 78.5 166.5t150 101t180.5 31.5
q105 0 188 -39t121 -120zM508 1155l-186 295h178l131 -197l180 197h186l-272 -295h-217z" />
    <glyph glyph-name="Ydieresis" unicode="&#x178;" horiz-adv-x="1253" 
d="M528 0l86 618l-430 832h252l305 -637l498 637h240l-668 -832l-86 -618h-197zM676 1839q49 0 83 -34t27 -83q-8 -56 -49 -92.5t-96 -36.5t-86 36.5t-23 92.5q7 49 51 83t93 34zM1094 1839q49 0 83 -34t27 -83q-8 -56 -49 -92.5t-96 -36.5t-86 36.5t-23 92.5q7 49 51 83
t93 34z" />
    <glyph glyph-name="Zcaron" unicode="&#x17d;" horiz-adv-x="1214" 
d="M66 0l26 184l977 1082h-801l27 184h1046l-26 -184l-973 -1082h834l-27 -184h-1083zM715 1532l-189 295h179l133 -197l178 197h186l-270 -295h-217z" />
    <glyph glyph-name="zcaron" unicode="&#x17e;" horiz-adv-x="948" 
d="M72 0l22 166l643 645h-532l22 160h758l-24 -164l-646 -647h584l-22 -160h-805zM528 1155l-186 295h178l131 -197l180 197h187l-273 -295h-217z" />
    <glyph glyph-name="florin" unicode="&#x192;" 
d="M1042 870l-20 -147h-274l-256 -754q-40 -120 -137.5 -192t-221.5 -72q-99 0 -192 51l98 146q64 -25 108 -25q34 0 62.5 12t46 29t33.5 44t24 47.5t17 49.5l223 664h-221l20 147h250l96 289q46 142 144 229t213 87q149 0 233 -50l-104 -153q-42 31 -115 31q-59 0 -114 -49
t-89 -156l-69 -228h245z" />
    <glyph glyph-name="circumflex" unicode="&#x2c6;" horiz-adv-x="491" 
d="M745 1155h-186l-123 197l-180 -197h-186l272 295h217z" />
    <glyph glyph-name="caron" unicode="&#x2c7;" horiz-adv-x="491" 
d="M299 1155l-186 295h178l131 -197l180 197h186l-272 -295h-217z" />
    <glyph glyph-name="uni02C9" unicode="&#x2c9;" horiz-adv-x="491" 
d="M733 1364l-20 -135h-590l20 135h590z" />
    <glyph glyph-name="breve" unicode="&#x2d8;" horiz-adv-x="491" 
d="M127 1438h113q1 -74 55 -111t135 -37q80 0 143.5 37t88.5 111h108q-29 -136 -126 -209.5t-236 -73.5q-138 0 -214.5 73.5t-66.5 209.5z" />
    <glyph glyph-name="dotaccent" unicode="&#x2d9;" horiz-adv-x="491" 
d="M416 1217q-55 0 -86 36.5t-23 92.5q7 49 51 82.5t93 33.5t83 -33.5t27 -82.5q-8 -56 -49 -92.5t-96 -36.5z" />
    <glyph glyph-name="ring" unicode="&#x2da;" horiz-adv-x="491" 
d="M223 1333q12 85 82.5 144t155.5 59q87 0 140.5 -58.5t41.5 -142.5q-10 -85 -80 -143.5t-157 -58.5q-84 0 -138.5 58t-44.5 142zM555 1333q7 50 -23.5 83.5t-80.5 33.5q-51 0 -93 -33.5t-49 -83.5q-6 -48 27 -81t82 -33t90 33t47 81z" />
    <glyph glyph-name="ogonek" unicode="&#x2db;" horiz-adv-x="491" 
d="M354 -291l33 -90q-93 -72 -197 -72q-83 0 -135 46.5t-43 127.5q11 78 77.5 154.5t154.5 138.5h110q-66 -56 -124 -126.5t-66 -129.5q-1 -46 23 -67t65 -21q49 0 102 39z" />
    <glyph glyph-name="tilde" unicode="&#x2dc;" horiz-adv-x="491" 
d="M166 1180h-98q27 88 89.5 150.5t147.5 62.5q60 0 164 -47q9 -3 32.5 -14.5t38.5 -16t35 -4.5q76 0 113 90h98q-27 -90 -82.5 -151.5t-138.5 -61.5q-57 0 -162 43q-3 1 -18.5 8t-21.5 9.5t-20 7.5t-23.5 7.5t-22 4.5t-23.5 2q-35 0 -63 -26t-45 -64z" />
    <glyph glyph-name="hungarumlaut" unicode="&#x2dd;" horiz-adv-x="491" 
d="M59 1155l256 295h260l-348 -295h-168zM406 1155l256 295h260l-349 -295h-167z" />
    <glyph glyph-name="uni03A9" unicode="&#x3a9;" horiz-adv-x="1466" 
d="M416 145v7q-103 108 -157.5 269.5t-25.5 360.5q27 196 129 352.5t255.5 244t328.5 87.5q136 0 242.5 -56.5t168.5 -150.5t86.5 -215t6.5 -251q-29 -205 -132 -373.5t-233 -267.5v-7h304l-21 -145h-502l15 109q136 82 245 250t142 399q13 103 -1 201t-53.5 178.5t-115 130
t-176.5 49.5q-129 0 -239.5 -75t-181 -203.5t-91.5 -286.5q-32 -217 30 -391.5t172 -251.5l-14 -109h-504l21 145h301z" />
    <glyph glyph-name="uni03BC" unicode="&#x3bc;" 
d="M74 -467l202 1438h185l-82 -574q-18 -128 36 -189t150 -61q122 0 208 81t108 243l71 500h185l-138 -971h-184l21 150h-5q-47 -78 -140 -126.5t-204 -48.5q-94 0 -161 37l-68 -479h-184z" />
    <glyph glyph-name="pi" unicode="&#x3c0;" horiz-adv-x="1181" 
d="M1257 924h-159l-86 -619q-28 -185 -15 -305h-172q-25 67 6 291l89 633h-351q-39 -215 -121 -499.5t-155 -424.5h-172q78 162 157 437t115 487q-153 0 -223 -25l-10 119q93 59 311 59h825z" />
    <glyph glyph-name="endash" unicode="&#x2013;" horiz-adv-x="1024" 
d="M1106 578l-23 -160h-1024l23 160h1024z" />
    <glyph glyph-name="emdash" unicode="&#x2014;" horiz-adv-x="2048" 
d="M2130 578l-23 -160h-2048l23 160h2048z" />
    <glyph glyph-name="quoteleft" unicode="&#x2018;" horiz-adv-x="569" 
d="M248 946l244 504h167l-213 -504h-198z" />
    <glyph glyph-name="quoteright" unicode="&#x2019;" horiz-adv-x="569" 
d="M659 1450l-243 -504h-168l213 504h198z" />
    <glyph glyph-name="quotesinglbase" unicode="&#x201a;" horiz-adv-x="569" 
d="M487 233l-243 -503h-168l213 503h198z" />
    <glyph glyph-name="quotedblleft" unicode="&#x201c;" horiz-adv-x="1062" 
d="M725 1450l-213 -504h-199l244 504h168zM1087 1450l-213 -504h-198l244 504h167z" />
    <glyph glyph-name="quotedblright" unicode="&#x201d;" horiz-adv-x="1062" 
d="M725 1450l-244 -504h-168l213 504h199zM1087 1450l-243 -504h-168l213 504h198z" />
    <glyph glyph-name="quotedblbase" unicode="&#x201e;" horiz-adv-x="1062" 
d="M553 233l-244 -503h-168l213 503h199zM915 233l-243 -503h-168l213 503h198z" />
    <glyph glyph-name="dagger" unicode="&#x2020;" 
d="M440 -258l160 1132h-405l22 160h406l59 416h184l-59 -416h405l-22 -160h-406l-159 -1132h-185z" />
    <glyph glyph-name="daggerdbl" unicode="&#x2021;" 
d="M440 -258l56 393h-394l23 160h393l88 627h-393l23 159h393l53 369h184l-53 -369h393l-22 -159h-393l-89 -627h394l-23 -160h-393l-55 -393h-185z" />
    <glyph glyph-name="bullet" unicode="&#x2022;" horiz-adv-x="1024" 
d="M252 725q22 151 142.5 256.5t271.5 105.5t242 -105.5t69 -256.5t-142.5 -257t-271.5 -106t-242 106t-69 257z" />
    <glyph glyph-name="ellipsis" unicode="&#x2026;" horiz-adv-x="2048" 
d="M340 -12q-56 0 -90 40t-27 95t53.5 95t102.5 40q55 0 89 -39.5t26 -95.5q-7 -55 -52.5 -95t-101.5 -40zM1022 -12q-56 0 -90 40t-27 95t53.5 95t102.5 40q55 0 89 -39.5t26 -95.5q-7 -55 -52.5 -95t-101.5 -40zM1704 -12q-56 0 -90 40t-27 95t53.5 95t102.5 40
q55 0 89 -39.5t26 -95.5q-7 -55 -52.5 -95t-101.5 -40z" />
    <glyph glyph-name="perthousand" unicode="&#x2030;" horiz-adv-x="2162" 
d="M1032 -37q-138 0 -220.5 98t-63.5 236q20 138 130 235t248 97t222.5 -97t64.5 -235q-19 -138 -131 -236t-250 -98zM1055 111q76 0 138 54.5t73 131.5q10 76 -36.5 130t-123.5 54t-139 -54t-72 -130q-11 -77 36.5 -131.5t123.5 -54.5zM1497 297q20 138 130.5 235t248.5 97
t222.5 -97t64.5 -235q-19 -138 -131 -236t-250 -98t-221 98t-64 236zM1804 111q76 0 138 54.5t73 131.5q10 76 -36.5 130t-123.5 54t-138.5 -54t-71.5 -130q-11 -77 36 -131.5t123 -54.5zM201 1143q20 138 130.5 235t248.5 97t222 -97t64 -235q-19 -138 -130 -236t-249 -98
t-221.5 98t-64.5 236zM348 1143q-11 -77 36.5 -132t123.5 -55t138 55t73 132q10 76 -36.5 130t-123.5 54t-139 -54t-72 -130zM1430 1454l-1121 -1517l-119 63l1125 1516z" />
    <glyph glyph-name="guilsinglleft" unicode="&#x2039;" horiz-adv-x="645" 
d="M418 55l-238 443l361 442l114 -84l-290 -358l192 -359z" />
    <glyph glyph-name="guilsinglright" unicode="&#x203a;" horiz-adv-x="645" 
d="M246 55l-115 84l289 359l-191 358l140 84l235 -442z" />
    <glyph glyph-name="fraction" unicode="&#x2044;" horiz-adv-x="342" 
d="M887 1450l-1112 -1516l-115 66l1112 1516z" />
    <glyph glyph-name="Euro" unicode="&#x20ac;" 
d="M1208 1247l64 154q-51 33 -130 53.5t-163 20.5q-209 0 -376 -123.5t-255 -362.5h-117l-63 -137h135q-15 -69 -24 -143l-9 -56q-1 -8 -3 -24.5t-3 -24.5h-94l-57 -133h147q9 -496 442 -496q114 0 219 48.5t171 123.5l-86 101q-118 -121 -273 -121q-151 0 -221.5 84.5
t-73.5 259.5h449l53 133h-496q0 8 3 25t4 22l6 51q14 94 28 150h555l56 137h-566q66 163 174 245.5t244 82.5q175 0 260 -70z" />
    <glyph glyph-name="afii61289" unicode="&#x2113;" horiz-adv-x="1007" 
d="M926 324l69 -74q-173 -264 -428 -264q-86 0 -148 29.5t-94.5 82t-44.5 117t-6 143.5l2 27q-6 -4 -53.5 -40t-72.5 -54l-37 100q163 126 184 144l78 555q15 109 45.5 196t69 143.5t86.5 94t96.5 53.5t99.5 16q128 0 181 -96.5t32 -245.5q-26 -184 -159.5 -367t-364.5 -382
l-10 -74q-19 -151 31.5 -226t142.5 -75q86 0 164 57.5t137 139.5zM545 1100l-60 -426q347 331 381 577q27 209 -110 209q-65 0 -124.5 -86t-86.5 -274z" />
    <glyph glyph-name="trademark" unicode="&#x2122;" horiz-adv-x="2048" 
d="M410 606l98 709h-254l20 135h668l-20 -135h-254l-99 -709h-159zM985 606l119 844h244l135 -647h6l319 647h244l-119 -844h-159l98 705h-4l-344 -705h-129l-148 705h-4l-98 -705h-160z" />
    <glyph glyph-name="Omega" unicode="&#x2126;" horiz-adv-x="1466" 
d="M416 145v7q-103 108 -157.5 269.5t-25.5 360.5q27 196 129 352.5t255.5 244t328.5 87.5q136 0 242.5 -56.5t168.5 -150.5t86.5 -215t6.5 -251q-29 -205 -132 -373.5t-233 -267.5v-7h304l-21 -145h-502l15 109q136 82 245 250t142 399q13 103 -1 201t-53.5 178.5t-115 130
t-176.5 49.5q-129 0 -239.5 -75t-181 -203.5t-91.5 -286.5q-32 -217 30 -391.5t172 -251.5l-14 -109h-504l21 145h301z" />
    <glyph glyph-name="estimated" unicode="&#x212e;" horiz-adv-x="2015" 
d="M1944 705h-1350q-10 0 -10 -11v-407q0 -26 18 -47q101 -104 232 -163t278 -59q157 0 296.5 66t240.5 182h118q-112 -133 -285.5 -211t-371.5 -78q-169 0 -323 59t-265 159t-177 239t-66 291q0 153 66 291.5t177 239t265 160t323 59.5q170 0 324.5 -59.5t266 -160
t177.5 -239t66 -291.5v-20zM1636 758v409q0 29 -18 50q-101 100 -231.5 156.5t-274.5 56.5q-145 0 -276 -58.5t-232 -161.5q-20 -20 -20 -51v-401q0 -4 3 -9.5t7 -5.5h1034q8 0 8 15z" />
    <glyph glyph-name="partialdiff" unicode="&#x2202;" horiz-adv-x="1130" 
d="M401 1376l-39 131q168 117 365 117q105 0 191.5 -47.5t149 -144.5t84 -244t-4.5 -346q-35 -250 -123 -441.5t-228 -304t-313 -112.5q-78 0 -141 27.5t-101.5 74.5t-64 109t-29 130.5t4.5 139.5q33 237 181 383.5t329 146.5q65 0 120.5 -20.5t91.5 -52t58 -60.5t33 -55h2
q10 39 14 86q24 166 -7 300.5t-106.5 209t-179.5 74.5q-145 0 -287 -101zM520 133h2q67 0 131.5 42.5t116 114t91.5 161.5t63 188q-8 46 -37 92.5t-86.5 83.5t-128.5 37q-121 0 -222.5 -115t-123.5 -274q-21 -145 32 -237.5t162 -92.5z" />
    <glyph glyph-name="Delta" unicode="&#x2206;" horiz-adv-x="1329" 
d="M61 0l17 117l696 1364h207l301 -1362l-16 -119h-1205zM264 145h834l-176 750q-8 49 -39.5 190.5t-36.5 192.5h-8q-16 -39 -80 -166.5t-88 -183.5z" />
    <glyph glyph-name="product" unicode="&#x220f;" horiz-adv-x="1642" 
d="M1591 1282h-221v-1481h-174v1481h-545v-1481h-176v1481h-219v162h1335v-162z" />
    <glyph glyph-name="summation" unicode="&#x2211;" horiz-adv-x="1337" 
d="M1294 -199h-1044v117l538 703l-516 698v125h990v-154h-746v-6l475 -635l-516 -674v-6h819v-168z" />
    <glyph glyph-name="minus" unicode="&#x2212;" horiz-adv-x="1363" 
d="M233 700h1094l-22 -159h-1094z" />
    <glyph glyph-name="uni2215" unicode="&#x2215;" horiz-adv-x="342" 
d="M887 1450l-1112 -1516l-115 66l1112 1516z" />
    <glyph glyph-name="uni2219" unicode="&#x2219;" horiz-adv-x="569" 
d="M238 621q8 56 53 95.5t100 39.5q56 0 90 -40t27 -95t-53.5 -95.5t-102.5 -40.5q-55 0 -88.5 40t-25.5 96z" />
    <glyph glyph-name="radical" unicode="&#x221a;" horiz-adv-x="1388" 
d="M1393 1720l-455 -2025h-154l-321 948l-154 -59l-33 106l295 117l250 -744q26 -98 37 -155h4q11 72 29 160l373 1652h129z" />
    <glyph glyph-name="infinity" unicode="&#x221e;" horiz-adv-x="1724" 
d="M1622 600v-2q0 -148 -94 -241t-223 -93q-93 0 -179 56.5t-196 185.5q-47 -56 -83 -92t-85.5 -74t-104 -57t-114.5 -19q-126 0 -218 94t-92 232q0 144 93 238t233 94q73 0 143.5 -35.5t122 -83.5t113.5 -123q31 36 44 50.5t44 47t50 47t51 37.5t58.5 33t62 18.5t71.5 8.5
q135 0 219 -89.5t84 -232.5zM559 373h2q21 0 41 3.5t40.5 13.5t36 17t37 25t32.5 26.5t33.5 32t29.5 31t31 34t28 30.5q-87 109 -128 147q-93 84 -195 84q-92 0 -146.5 -66t-54.5 -163q0 -91 59.5 -153t153.5 -62zM1309 817h-4q-38 0 -75 -14.5t-73 -43.5t-59.5 -51.5
t-59 -61.5t-45.5 -50q112 -126 177 -174.5t143 -48.5q90 0 144 66.5t54 150.5q0 104 -56.5 165.5t-145.5 61.5z" />
    <glyph glyph-name="integral" unicode="&#x222b;" horiz-adv-x="960" 
d="M924 1743l-27 -125q-30 20 -74 20q-66 0 -104 -49q-36 -45 -51 -131.5t-15 -232.5q0 -162 13.5 -508.5t13.5 -521.5q0 -284 -84 -416q-34 -59 -92 -88t-125 -29q-80 0 -139 33l26 129q52 -23 92 -23q62 0 95 45q67 91 67 349q0 176 -14 528.5t-14 517.5q0 174 25.5 277.5
t86.5 167.5q77 83 203 83q67 0 117 -26z" />
    <glyph glyph-name="approxequal" unicode="&#x2248;" horiz-adv-x="1271" 
d="M1112 899l70 -61q-101 -201 -267 -201q-58 0 -105.5 19t-131.5 67q-40 23 -63.5 35.5t-58.5 23.5t-67 11q-63 0 -107.5 -39t-92.5 -113l-72 61q47 92 121.5 145.5t163.5 53.5q24 0 48.5 -4.5t42 -9.5t40.5 -16t34 -16.5t33.5 -19t28.5 -16.5q7 -4 26 -14.5t25.5 -14
t22 -11.5t23 -11t21.5 -8t24 -7t23 -3.5t26 -1.5q58 0 102 37t90 114zM1112 541l70 -62q-102 -198 -267 -198q-58 0 -105.5 19t-131.5 67q-39 23 -63.5 35.5t-59 23t-66.5 10.5q-65 0 -108.5 -39t-91.5 -114l-72 61q47 92 122 146.5t163 54.5q29 0 55.5 -4.5t54.5 -16.5
t40.5 -17.5t43.5 -24t33 -19.5q10 -5 37.5 -21t39.5 -22t34 -15t40.5 -12.5t39.5 -3.5q59 0 102.5 37t89.5 115z" />
    <glyph glyph-name="notequal" unicode="&#x2260;" horiz-adv-x="1298" 
d="M973 1044l-88 -198h311v-111h-356l-133 -297h489v-110h-534l-109 -240l-88 39l92 201h-301v110h346l133 297h-479v111h522l107 235z" />
    <glyph glyph-name="lessequal" unicode="&#x2264;" horiz-adv-x="1323" 
d="M1214 201l-923 463v118l921 463v-133l-804 -385v-4l806 -389v-133zM1221 4h-940v115h940v-115z" />
    <glyph glyph-name="greaterequal" unicode="&#x2265;" horiz-adv-x="1323" 
d="M293 1245l924 -463v-118l-924 -463v133l805 387v4l-805 387v133zM1219 4h-938v115h938v-115z" />
    <glyph glyph-name="lozenge" unicode="&#x25ca;" horiz-adv-x="1388" 
d="M1280 721l-414 -815h-143l-406 815l412 817h145zM1118 717l-278 559q-28 69 -39 113h-6q-11 -44 -39 -113l-279 -551l281 -563q25 -61 37 -109h8q13 56 35 107z" />
    </font>
</defs>
</svg>
