<?xml version="1.0" standalone="no"?>
<!DOCTYPE svg PUBLIC "-//W3C//DTD SVG 1.1//EN" "http://www.w3.org/Graphics/SVG/1.1/DTD/svg11.dtd" >
<svg xmlns="http://www.w3.org/2000/svg" xmlns:xlink="http://www.w3.org/1999/xlink" version="1.1">
<metadata>
Created by FontForge 20201107 at Wed Jul 17 16:26:12 2024
 By 
Copyright (c) 1989, 1995, 2002 Adobe Systems Incorporated.  All Rights Reserved. (c) 1981, 1995, 2002 Heidelberger Druckmaschinen AG. All rights reserved.
</metadata>
<defs>
<font id="AvenirLTStd-LightOblique" horiz-adv-x="1064" >
  <font-face 
    font-family="Avenir LT Std 35 Light"
    font-weight="300"
    font-style="oblique"
    font-stretch="normal"
    units-per-em="2048"
    panose-1="2 11 4 2 2 2 3 2 2 4"
    ascent="1638"
    descent="-410"
    x-height="946"
    cap-height="1450"
    bbox="-344 -567 2128 1909"
    underline-thickness="102"
    underline-position="-204"
    slope="-8"
    unicode-range="U+0020-FB02"
  />
<missing-glyph horiz-adv-x="1224" 
d="M201 0v1434h1024v-1434h-1024zM713 809l348 522h-696zM774 717l348 -522v1044zM365 102h696l-348 523zM303 1239v-1044l348 522z" />
    <glyph glyph-name="fi" unicode="fi" horiz-adv-x="1062" 
d="M756 0l133 946h123l-133 -946h-123zM911 1321q4 38 35.5 65t69.5 27t61.5 -27t18.5 -65q-6 -38 -37.5 -65t-69.5 -27t-61 27t-17 65zM233 0l117 836h-196l16 110h197l43 309q12 87 48 152t84 99.5t97 50.5t98 16q82 0 137 -25l-38 -106q-39 20 -109 20q-84 0 -133 -62
t-68 -190l-37 -264h222l-17 -110h-221l-117 -836h-123z" />
    <glyph glyph-name="fl" unicode="fl" horiz-adv-x="1062" 
d="M233 0l117 836h-196l16 110h197l43 309q12 87 48 152t84 99.5t97 50.5t98 16q82 0 137 -25l-38 -106q-39 20 -109 20q-84 0 -133 -62t-68 -190l-37 -264h222l-17 -110h-221l-117 -836h-123zM756 0l217 1548h123l-217 -1548h-123z" />
    <glyph glyph-name=".notdef" horiz-adv-x="1224" 
d="M201 0v1434h1024v-1434h-1024zM713 809l348 522h-696zM774 717l348 -522v1044zM365 102h696l-348 523zM303 1239v-1044l348 522z" />
    <glyph glyph-name=".null" horiz-adv-x="0" 
 />
    <glyph glyph-name="nonmarkingreturn" horiz-adv-x="682" 
 />
    <glyph glyph-name="space" unicode=" " horiz-adv-x="532" 
 />
    <glyph glyph-name="exclam" unicode="!" horiz-adv-x="757" 
d="M645 1450l-151 -1069h-123l151 1069h123zM293 86q6 41 39 69.5t74 28.5t65 -28.5t18 -69.5t-38.5 -69.5t-73.5 -28.5t-65.5 28.5t-18.5 69.5z" />
    <glyph glyph-name="quotedbl" unicode="&#x22;" 
d="M467 983l68 467h122l-67 -467h-123zM750 983l67 467h123l-68 -467h-122z" />
    <glyph glyph-name="numbersign" unicode="#" 
d="M186 0l127 469h-221l14 98h236l90 320h-221l14 98h236l127 465h106l-129 -465h285l129 465h106l-129 -465h222l-15 -98h-235l-88 -320h221l-14 -98h-236l-127 -469h-106l127 469h-285l-127 -469h-107zM733 567l88 320h-282l-88 -320h282z" />
    <glyph glyph-name="dollar" unicode="$" 
d="M666 643l-78 -557q116 5 205 88t106 205q23 163 -149 231zM592 819l78 545q-106 -18 -188.5 -92.5t-98.5 -186.5q-13 -101 32.5 -159t143.5 -95zM455 -162l18 137q-115 0 -219.5 56.5t-159.5 158.5l129 80q37 -83 107.5 -131t158.5 -53l84 594l-139 53q-46 18 -81.5 44.5
t-55.5 58t-32.5 63.5t-16.5 66t-3.5 60t3.5 52q12 83 56.5 156t106 123t133 81t140.5 38l21 137h98l-21 -137q117 0 206 -39.5t149 -143.5l-125 -82q-36 72 -102.5 113t-141.5 41l-82 -578l137 -49q48 -17 87 -45.5t72.5 -71.5t47 -107t2.5 -142q-24 -168 -159.5 -277.5
t-301.5 -118.5l-18 -137h-98z" />
    <glyph glyph-name="percent" unicode="%" horiz-adv-x="1669" 
d="M236 1122q20 146 137.5 249.5t263.5 103.5t234.5 -103.5t68.5 -249.5t-137.5 -249t-263.5 -103t-234.5 103t-68.5 249zM346 1122q-13 -102 47 -171.5t160 -69.5q101 0 182 69.5t94 171.5t-46.5 172t-159.5 70q-101 0 -182.5 -70t-94.5 -172zM932 328q22 146 139.5 249
t263.5 103t234.5 -103t66.5 -249q-20 -146 -137.5 -249.5t-263.5 -103.5t-234.5 103.5t-68.5 249.5zM1042 328q-13 -102 48 -172t161 -70q101 0 181.5 70t93.5 172q15 102 -45.5 171.5t-161.5 69.5t-181.5 -69.5t-95.5 -171.5zM322 -12l1148 1532l86 -58l-1150 -1532z" />
    <glyph glyph-name="ampersand" unicode="&#x26;" horiz-adv-x="1441" 
d="M758 795l299 -373l262 377h139l-328 -463l281 -346h-182l-185 233q-113 -128 -228 -194t-259 -66q-92 0 -168.5 30t-128.5 84t-75.5 133.5t-10.5 174.5q7 47 23.5 89.5t36 75.5t53 66.5t59 55.5t70.5 51.5t72.5 45t78.5 44.5q-35 51 -53 79.5t-42.5 77t-32 94.5t-1.5 93
q15 101 77 177.5t149.5 114.5t185.5 38q86 0 155.5 -37.5t106 -109t23.5 -160.5q-6 -44 -22 -83t-34 -68.5t-50.5 -60.5t-57 -50t-68.5 -45t-69.5 -39.5t-75.5 -38.5zM823 1364q-92 0 -164 -58t-84 -147q-5 -35 3.5 -73t31 -80t37.5 -64.5t43 -62.5q44 21 65.5 32t63 34.5
t65 43.5t51 48.5t42.5 61.5t20 70q12 86 -37 140.5t-137 54.5zM975 309l-342 418q-57 -32 -86.5 -49.5t-78 -53t-75 -65.5t-51 -75t-31.5 -95q-20 -135 62.5 -219t222.5 -84q199 0 379 223z" />
    <glyph glyph-name="quotesingle" unicode="'" horiz-adv-x="532" 
d="M342 983l68 467h122l-67 -467h-123z" />
    <glyph glyph-name="parenleft" unicode="(" horiz-adv-x="532" 
d="M614 1499l95 -65q-151 -162 -252 -391.5t-133 -452.5q-31 -230 7 -434.5t140 -413.5l-104 -61q-114 195 -156.5 434.5t-9.5 474.5q35 243 143.5 481.5t269.5 427.5z" />
    <glyph glyph-name="parenright" unicode=")" horiz-adv-x="532" 
d="M84 -319l-94 65q151 162 251.5 391.5t131.5 452.5q32 230 -6 434t-140 414l105 61q114 -195 156 -434.5t8 -474.5q-34 -242 -142 -481t-270 -428z" />
    <glyph glyph-name="asterisk" unicode="*" horiz-adv-x="909" 
d="M711 1450l-45 -311l309 98l16 -98l-307 -97l150 -249l-84 -60l-156 256l-219 -256l-74 60l223 249l-284 103l41 92l286 -98l45 311h99z" />
    <glyph glyph-name="plus" unicode="+" horiz-adv-x="1363" 
d="M240 571l14 99h473l66 473h98l-66 -473h473l-14 -99h-473l-66 -473h-98l66 473h-473z" />
    <glyph glyph-name="comma" unicode="," horiz-adv-x="532" 
d="M63 -283l201 467h144l-224 -467h-121z" />
    <glyph glyph-name="hyphen" unicode="-" horiz-adv-x="681" 
d="M150 430l14 111h506l-15 -111h-505z" />
    <glyph glyph-name="period" unicode="." horiz-adv-x="532" 
d="M180 86q6 41 39 69.5t74 28.5t65.5 -28.5t18.5 -69.5t-39 -69.5t-74 -28.5t-65.5 28.5t-18.5 69.5z" />
    <glyph glyph-name="slash" unicode="/" horiz-adv-x="757" 
d="M12 -37l844 1561l100 -37l-839 -1561z" />
    <glyph glyph-name="zero" unicode="0" 
d="M156 725q10 73 24.5 141t39 145t55.5 142t77 126t100.5 103t128 67.5t158.5 25.5t151.5 -25.5t109 -67.5t71.5 -103t42 -126t16.5 -142t-1 -144.5t-14.5 -141.5q-10 -73 -25 -141t-40 -145t-56 -142t-77 -126t-101 -103t-128.5 -67.5t-158.5 -25.5t-151.5 25.5t-109 67.5
t-71 103t-41.5 126t-16 142t2 145t15 141zM291 725q-8 -54 -12.5 -106.5t-5 -118t6.5 -121.5t26 -111.5t48.5 -94.5t78 -63t112.5 -24q63 0 118.5 24t96 62.5t75 94.5t57 111.5t41 122t28.5 117.5t18 107q8 55 12 106.5t4.5 118t-6.5 122t-25.5 111.5t-48 94.5t-78.5 62.5
t-112 24q-64 0 -119 -24t-95.5 -63t-75 -94.5t-57.5 -111t-41 -121.5t-28 -118t-18 -107z" />
    <glyph glyph-name="one" unicode="1" 
d="M535 0l180 1278h-2l-293 -215l-64 94l402 293h104l-205 -1450h-122z" />
    <glyph glyph-name="two" unicode="2" 
d="M84 0l20 143l625 576q42 37 68.5 63t63.5 66.5t59.5 75.5t42 80t26.5 90q18 124 -52.5 197t-197.5 73q-111 0 -198.5 -65.5t-126.5 -172.5l-142 15q59 164 187.5 249t300.5 85q113 0 201 -43.5t134.5 -129t30.5 -198.5q-8 -55 -26 -105.5t-48.5 -99t-59 -86t-75.5 -85
t-78.5 -76t-86.5 -77.5l-516 -464h761l-16 -111h-897z" />
    <glyph glyph-name="three" unicode="3" 
d="M121 260l139 43q26 -108 91 -162.5t184 -54.5q155 0 251.5 89t116.5 226q10 77 -15 136.5t-76.5 94t-115 51.5t-135.5 17h-53l18 123h62q61 0 118.5 15.5t109 47t87 86t45.5 126.5q17 117 -46 191.5t-183 74.5q-88 0 -167 -45.5t-132 -124.5l-109 66q74 109 183 162
t239 53q84 0 153 -23.5t118.5 -69t71.5 -117.5t9 -163q-18 -122 -97.5 -212.5t-207.5 -123.5l-2 -4q134 -25 205.5 -128.5t52.5 -242.5q-26 -181 -159.5 -298.5t-348.5 -117.5q-339 0 -407 285z" />
    <glyph glyph-name="four" unicode="4" 
d="M674 0l49 356h-627l21 146l714 948h170l-139 -983h221l-16 -111h-221l-49 -356h-123zM739 467l119 848h-4l-631 -848h516z" />
    <glyph glyph-name="five" unicode="5" 
d="M1128 1450l-16 -111h-598l-72 -460q87 41 217 41q134 0 229 -66t134 -174.5t20 -239.5q-15 -112 -70 -203.5t-131 -147t-160.5 -85t-166.5 -29.5q-304 0 -399 246l137 64q25 -84 103.5 -141.5t174.5 -57.5q52 0 111 22.5t114.5 63.5t97.5 109.5t54 150.5
q22 158 -67.5 267.5t-243.5 109.5q-146 0 -301 -98l117 739h716z" />
    <glyph glyph-name="six" unicode="6" 
d="M944 1450l-485 -639h4q37 29 101 45t122 16q192 0 299.5 -128.5t81.5 -317.5q-28 -196 -180.5 -323.5t-358.5 -127.5t-322.5 127.5t-88.5 323.5q8 54 27 106t49.5 103t52 82.5t57.5 79.5l485 653h156zM641 766q-141 0 -255 -99.5t-134 -240.5q-22 -151 60 -245.5
t233 -94.5t258 94.5t129 245.5q20 141 -65 240.5t-226 99.5z" />
    <glyph glyph-name="seven" unicode="7" 
d="M1112 1450l-16 -111l-766 -1339h-137l776 1339h-697l17 111h823z" />
    <glyph glyph-name="eight" unicode="8" 
d="M289 1098q24 167 151.5 272t298.5 105t269.5 -105t74.5 -272q-14 -105 -91.5 -198.5t-184.5 -121.5v-2q130 -28 190.5 -132.5t40.5 -240.5q-27 -192 -171 -310t-339 -118t-304.5 118t-82.5 310q20 136 109 240.5t225 132.5v2q-98 28 -149 121.5t-37 198.5zM424 1098
q-15 -111 47.5 -189t177.5 -78t199.5 78t99.5 189q17 119 -46 192.5t-177 73.5t-199 -73.5t-102 -192.5zM276 403q-19 -134 55 -225.5t214 -91.5q139 0 239 91.5t119 225.5q20 140 -58.5 229t-211.5 89t-235 -89t-122 -229z" />
    <glyph glyph-name="nine" unicode="9" 
d="M326 0l485 639h-4q-39 -29 -102.5 -45t-120.5 -16q-192 0 -300.5 128.5t-82.5 317.5q28 196 180 323.5t358 127.5t323 -127.5t89 -323.5q-6 -44 -22 -90t-29.5 -76.5t-44.5 -78.5t-42 -63t-46 -63l-486 -653h-155zM629 684q141 0 254 99.5t133 240.5q22 151 -59 245.5
t-232 94.5t-259 -94.5t-130 -245.5q-20 -141 66 -240.5t227 -99.5z" />
    <glyph glyph-name="colon" unicode=":" horiz-adv-x="532" 
d="M289 860q6 41 38.5 69.5t73.5 28.5t65.5 -28.5t18.5 -69.5t-38.5 -69.5t-73.5 -28.5t-65.5 28.5t-18.5 69.5zM180 86q6 41 39 69.5t74 28.5t65.5 -28.5t18.5 -69.5t-39 -69.5t-74 -28.5t-65.5 28.5t-18.5 69.5z" />
    <glyph glyph-name="semicolon" unicode=";" horiz-adv-x="532" 
d="M63 -283l201 467h144l-224 -467h-121zM289 860q6 41 38.5 69.5t73.5 28.5t65.5 -28.5t18.5 -69.5t-38.5 -69.5t-73.5 -28.5t-65.5 28.5t-18.5 69.5z" />
    <glyph glyph-name="less" unicode="&#x3c;" horiz-adv-x="1363" 
d="M1358 1149l-15 -102l-976 -426l856 -426l-15 -103l-960 479l14 99z" />
    <glyph glyph-name="equal" unicode="=" horiz-adv-x="1363" 
d="M260 719l14 98h1045l-14 -98h-1045zM219 424l14 98h1045l-14 -98h-1045z" />
    <glyph glyph-name="greater" unicode="&#x3e;" horiz-adv-x="1363" 
d="M180 92l15 103l979 426l-859 426l15 102l960 -479l-14 -99z" />
    <glyph glyph-name="question" unicode="?" horiz-adv-x="948" 
d="M471 381l25 172q8 55 32.5 103t57.5 83.5t71.5 69l77 67t71.5 68.5t57.5 82.5t31.5 101.5q15 111 -39.5 179.5t-165.5 68.5q-105 0 -184 -64.5t-117 -172.5l-131 16q50 155 171.5 243.5t275.5 88.5q166 0 258 -93.5t69 -258.5q-10 -70 -36.5 -127.5t-61.5 -97t-75 -74.5
t-80 -67.5t-74 -67t-59.5 -83t-33.5 -106.5l-18 -131h-123zM395 86q6 41 39 69.5t74 28.5t65.5 -28.5t18.5 -69.5t-39 -69.5t-74 -28.5t-65.5 28.5t-18.5 69.5z" />
    <glyph glyph-name="at" unicode="@" horiz-adv-x="1638" 
d="M600 573q-11 -86 28 -140t117 -54q91 0 185 80t154 187t73 198q29 209 -137 209q-74 0 -148 -47.5t-129 -119.5t-93.5 -155.5t-49.5 -157.5zM1432 1124l-283 -594q-31 -67 -35 -98q-4 -20 5.5 -36.5t39.5 -16.5q69 0 157.5 74.5t158.5 191.5t86 227q16 111 -19 209
t-106.5 164.5t-173 105t-215.5 38.5q-181 0 -345 -93t-269.5 -244.5t-129.5 -324.5q-25 -180 41 -333t204 -243t316 -90q151 0 306.5 76t252.5 195h119q-117 -169 -307 -269t-385 -100q-217 0 -378.5 102.5t-234.5 277t-44 384.5q22 157 101 298t194.5 242t264 160.5
t304.5 59.5q147 0 270.5 -47t205 -128.5t119 -196t19.5 -243.5q-17 -123 -75.5 -237t-138 -193t-172.5 -126.5t-179 -47.5q-55 0 -85.5 36t-21.5 102h-4q-55 -57 -132.5 -97.5t-151.5 -40.5q-132 0 -192 85.5t-42 215.5q16 108 65 213.5t121.5 190.5t172.5 137.5t208 52.5
q74 0 127 -41t66 -129h4l68 131h123z" />
    <glyph glyph-name="A" unicode="A" horiz-adv-x="1402" 
d="M10 0l838 1450h139l406 -1450h-152l-104 385h-768l-217 -385h-142zM1106 508l-217 795l-449 -795h666z" />
    <glyph glyph-name="B" unicode="B" horiz-adv-x="1290" 
d="M199 0l204 1450h418q39 0 74 -2.5t73 -8t68.5 -15.5t62.5 -25.5t54.5 -37t43 -49.5t29 -64t13 -81t-5.5 -100q-15 -113 -93.5 -194t-207.5 -107l-2 -4q143 -11 219.5 -108t54.5 -248q-13 -96 -56 -170t-98 -117.5t-126 -71.5t-134 -37.5t-128 -9.5h-463zM520 1327
l-69 -504h280q80 0 144.5 17t103 42.5t65.5 60t38.5 64.5t15.5 60q11 74 -6.5 126t-58.5 80.5t-93.5 41t-120.5 12.5h-299zM432 700l-82 -577h309q91 0 163 19.5t115 48.5t72.5 68.5t42 73t17.5 68.5q10 77 -11.5 136.5t-67 94t-103.5 51.5t-125 17h-330z" />
    <glyph glyph-name="C" unicode="C" horiz-adv-x="1441" 
d="M1325 311l100 -84q-230 -264 -577 -264q-218 0 -375.5 98t-227 271.5t-38.5 392.5q30 219 149 392.5t304 271.5t403 98q324 0 467 -227l-123 -93q-52 97 -149 147t-211 50q-185 0 -338.5 -85t-247.5 -229.5t-119 -324.5q-26 -180 27.5 -324.5t182.5 -229.5t314 -85
q118 0 245 57.5t214 167.5z" />
    <glyph glyph-name="D" unicode="D" horiz-adv-x="1517" 
d="M180 0l205 1450h449q121 0 222 -22t170 -57t122.5 -86t85 -102t52 -112.5t28 -110t8.5 -101.5t-1 -80.5t-5 -53.5q-5 -36 -14 -74.5t-37 -114.5t-67 -142t-109 -141.5t-157 -128.5t-217.5 -88.5t-285.5 -35.5h-449zM502 1327l-170 -1204h278q117 0 222 22.5t198 70
t164.5 117.5t120 170t65.5 222t-3.5 222t-72 170t-130.5 117.5t-178 70t-216 22.5h-278z" />
    <glyph glyph-name="E" unicode="E" horiz-adv-x="1214" 
d="M199 0l204 1450h887l-18 -123h-752l-71 -516h704l-18 -123h-705l-80 -565h785l-17 -123h-919z" />
    <glyph glyph-name="F" unicode="F" horiz-adv-x="1138" 
d="M199 0l204 1450h869l-19 -123h-733l-71 -516h681l-18 -123h-682l-96 -688h-135z" />
    <glyph glyph-name="G" unicode="G" horiz-adv-x="1593" 
d="M1505 782l-98 -688q-246 -131 -559 -131q-218 0 -375.5 98t-227 271.5t-38.5 392.5q30 219 149 392.5t304 271.5t403 98q325 0 493 -201l-112 -102q-54 79 -166 129.5t-231 50.5q-185 0 -338.5 -85t-247.5 -229.5t-119 -324.5q-26 -180 27.5 -324.5t182.5 -229.5t314 -85
q260 0 418 86l68 487h-348l18 123h483z" />
    <glyph glyph-name="H" unicode="H" horiz-adv-x="1478" 
d="M199 0l204 1450h136l-90 -639h811l90 639h135l-205 -1450h-135l96 688h-811l-96 -688h-135z" />
    <glyph glyph-name="I" unicode="I" horiz-adv-x="532" 
d="M199 0l204 1450h136l-205 -1450h-135z" />
    <glyph glyph-name="J" unicode="J" horiz-adv-x="987" 
d="M993 1450l-145 -1024q-7 -45 -14 -81t-23 -86.5t-37.5 -88.5t-57 -79t-80 -67.5t-109 -43.5t-142.5 -17q-153 0 -237.5 79.5t-96.5 217.5l139 25q18 -199 213 -199q137 0 211.5 82.5t94.5 224.5l149 1057h135z" />
    <glyph glyph-name="K" unicode="K" horiz-adv-x="1251" 
d="M199 0l204 1450h136l-90 -639h12l792 639h187l-828 -664l664 -786h-195l-630 750h-13l-104 -750h-135z" />
    <glyph glyph-name="L" unicode="L" horiz-adv-x="1024" 
d="M199 0l204 1450h136l-189 -1327h676l-16 -123h-811z" />
    <glyph glyph-name="M" unicode="M" horiz-adv-x="1820" 
d="M184 0l205 1450h203l356 -1217l701 1217h192l-205 -1450h-135l180 1278h-4l-733 -1278h-59l-381 1278h-4l-181 -1278h-135z" />
    <glyph glyph-name="N" unicode="N" horiz-adv-x="1593" 
d="M199 0l204 1450h175l702 -1270h4l180 1270h135l-204 -1450h-174l-705 1270h-4l-178 -1270h-135z" />
    <glyph glyph-name="O" unicode="O" horiz-adv-x="1708" 
d="M207 725q30 219 149 392.5t304 271.5t403 98t375.5 -98t227.5 -271.5t40 -392.5q-31 -219 -150.5 -392.5t-304.5 -271.5t-403 -98t-375.5 98t-227 271.5t-38.5 392.5zM342 725q-26 -180 27.5 -324.5t182.5 -229.5t314 -85t338 85t247 229.5t120 324.5q18 135 -8.5 252
t-92.5 202.5t-175 135t-248 49.5q-185 0 -338.5 -85t-247.5 -229.5t-119 -324.5z" />
    <glyph glyph-name="P" unicode="P" horiz-adv-x="1175" 
d="M199 0l204 1450h418q66 0 126 -10.5t119.5 -37.5t99.5 -69t59.5 -110.5t7.5 -155.5q-13 -95 -59.5 -169t-114.5 -119t-148.5 -68t-167.5 -23h-313l-96 -688h-135zM520 1327l-71 -516h307q61 0 115.5 13.5t103 42.5t81 80.5t42.5 119.5q10 67 -10 118.5t-61.5 81.5t-94 45
t-113.5 15h-299z" />
    <glyph glyph-name="Q" unicode="Q" horiz-adv-x="1708" 
d="M1681 123l-16 -123h-799q-151 0 -281.5 54t-222 149.5t-134 236t-19.5 303.5q22 157 93.5 293.5t179.5 236t255 157t312 57.5q220 0 374.5 -98.5t219.5 -267t36 -378.5q-18 -128 -77.5 -252.5t-157.5 -223t-213 -140.5l-2 -4h452zM344 743q-23 -169 35.5 -310.5
t190 -225.5t309.5 -84q136 0 254.5 51.5t202 138t137.5 197.5t71 233q18 132 -7 245.5t-89 197t-171 131t-245 47.5t-259 -47.5t-208.5 -131t-145 -197t-75.5 -245.5z" />
    <glyph glyph-name="R" unicode="R" horiz-adv-x="1214" 
d="M520 1327l-71 -516h286q82 0 147 17.5t104.5 44t67 63t39.5 68t17 65.5q6 25 2 54t-11 57.5t-30.5 55t-55.5 47t-85.5 32.5t-122.5 12h-287zM199 0l204 1450h381q39 0 66 -1t84.5 -8t98 -20.5t89.5 -42t77 -67.5t42.5 -101.5t3.5 -140.5q-11 -79 -43.5 -142.5
t-74.5 -102.5t-97 -67t-104 -41t-103 -20l324 -696h-154l-311 688h-252l-96 -688h-135z" />
    <glyph glyph-name="S" unicode="S" horiz-adv-x="1138" 
d="M135 182l139 86q41 -90 120 -136t188 -46q139 0 242.5 78.5t121.5 206.5q9 65 -9.5 113t-57.5 78t-92 53t-112 42t-118 40t-110.5 52.5t-89 74t-53 110.5t-3.5 156q17 124 96 216t189 136.5t235 44.5q255 0 371 -182l-129 -84q-84 143 -262 143q-139 0 -243 -71.5
t-122 -202.5q-10 -70 8.5 -121.5t57.5 -82.5t91.5 -54.5t112 -41.5t118.5 -38t111 -50t89 -70.5t53 -107t4 -153.5q-27 -188 -174 -298t-334 -110q-313 0 -438 219z" />
    <glyph glyph-name="T" unicode="T" horiz-adv-x="1175" 
d="M520 0l187 1327h-496l18 123h1127l-19 -123h-495l-187 -1327h-135z" />
    <glyph glyph-name="U" unicode="U" horiz-adv-x="1400" 
d="M1434 1450l-127 -895q-13 -96 -42 -180.5t-79 -161t-117.5 -131.5t-163.5 -87t-211 -32q-96 0 -173 22.5t-127.5 62.5t-86 95t-49.5 121t-17.5 140t9.5 151l127 895h135l-123 -860q-7 -48 -9 -93t2 -97t16 -95.5t37 -85t61 -70t91.5 -46t125.5 -17.5q97 0 175 33.5
t126 83.5t83.5 121t52 133.5t26.5 132.5l122 860h136z" />
    <glyph glyph-name="V" unicode="V" horiz-adv-x="1214" 
d="M535 0l-336 1450h145l287 -1272l651 1272h143l-755 -1450h-135z" />
    <glyph glyph-name="W" unicode="W" horiz-adv-x="1933" 
d="M432 0l-217 1450h139l178 -1284h5l548 1284h172l185 -1284h4l543 1284h139l-627 -1450h-166l-184 1290h-4l-549 -1290h-166z" />
    <glyph glyph-name="X" unicode="X" horiz-adv-x="1251" 
d="M2 0l651 762l-397 688h160l334 -590l495 590h162l-590 -688l432 -762h-168l-366 655l-551 -655h-162z" />
    <glyph glyph-name="Y" unicode="Y" horiz-adv-x="1175" 
d="M520 0l88 625l-415 825h161l340 -688l547 688h152l-650 -825l-88 -625h-135z" />
    <glyph glyph-name="Z" unicode="Z" horiz-adv-x="1138" 
d="M47 0l14 106l1020 1221h-835l18 123h1010l-17 -111l-1026 -1216h877l-16 -123h-1045z" />
    <glyph glyph-name="bracketleft" unicode="[" horiz-adv-x="532" 
d="M670 1499l-15 -98h-184l-227 -1622h184l-14 -98h-308l256 1818h308z" />
    <glyph glyph-name="backslash" unicode="\" horiz-adv-x="757" 
d="M332 1524l401 -1561l-112 -37l-402 1561z" />
    <glyph glyph-name="bracketright" unicode="]" horiz-adv-x="532" 
d="M29 -319l14 98h184l228 1622h-185l15 98h307l-256 -1818h-307z" />
    <glyph glyph-name="asciicircum" unicode="^" horiz-adv-x="1363" 
d="M242 524l598 926h94l336 -926h-115l-285 815l-512 -815h-116z" />
    <glyph glyph-name="underscore" unicode="_" horiz-adv-x="1024" 
d="M-37 -256l14 102h1024l-14 -102h-1024z" />
    <glyph glyph-name="grave" unicode="`" horiz-adv-x="491" 
d="M356 1450l170 -295h-102l-231 295h163z" />
    <glyph glyph-name="a" unicode="a" horiz-adv-x="1062" 
d="M987 629l-33 -232q-36 -265 -36 -397h-115q-3 68 10 154h-4q-67 -92 -153 -135.5t-205 -43.5q-63 0 -118.5 16t-99.5 48.5t-64.5 88.5t-10.5 128q43 317 567 317h143l9 58q18 117 -47 173t-187 56q-165 0 -303 -106l-61 84q74 62 179 97.5t201 35.5q179 0 266 -84
t62 -258zM856 475h-135q-82 0 -153 -11t-134.5 -34.5t-104 -66.5t-48.5 -101q-11 -82 47.5 -129t142.5 -47q94 0 165 28t113 77t65 103t32 118z" />
    <glyph glyph-name="b" unicode="b" horiz-adv-x="1251" 
d="M137 0l217 1548h123l-106 -768h4q67 93 179 142t226 49q218 0 337.5 -140.5t88.5 -357.5q-29 -217 -189 -357.5t-378 -140.5q-73 0 -141 20t-126 64t-85 107h-4l-23 -166h-123zM313 473q-22 -161 77 -274t265 -113q169 0 287.5 111.5t140.5 275.5q24 164 -63 275.5
t-256 111.5q-166 0 -297 -113t-154 -274z" />
    <glyph glyph-name="c" unicode="c" horiz-adv-x="985" 
d="M893 217l84 -78q-161 -164 -373 -164q-218 0 -337.5 140.5t-90.5 357.5q31 217 191 357.5t378 140.5q102 0 186 -42.5t142 -121.5l-108 -74q-96 127 -236 127q-169 0 -287.5 -111.5t-142.5 -275.5q-22 -164 65.5 -275.5t256.5 -111.5q148 0 272 131z" />
    <glyph glyph-name="d" unicode="d" horiz-adv-x="1251" 
d="M991 0l23 166h-4q-67 -93 -179.5 -142t-226.5 -49q-218 0 -337.5 140.5t-90.5 357.5q31 217 191 357.5t378 140.5q114 0 213.5 -49t139.5 -142h4l106 768h123l-217 -1548h-123zM1069 473q23 161 -75.5 274t-264.5 113q-169 0 -287.5 -111.5t-142.5 -275.5
q-22 -164 65.5 -275.5t256.5 -111.5q166 0 296 113t152 274z" />
    <glyph glyph-name="e" unicode="e" horiz-adv-x="1138" 
d="M944 254l80 -76q-166 -203 -438 -203q-215 0 -327 139.5t-81 360.5q29 213 183 354.5t360 141.5q71 0 131.5 -17.5t103.5 -48.5t76 -73.5t49.5 -91.5t23.5 -103t-3 -109l-12 -86h-795q-1 -22 -2.5 -51.5t7.5 -63.5t20.5 -68t37 -65t57.5 -55t81 -38.5t108 -14.5
q95 0 189.5 46t150.5 122zM311 553h672q17 126 -66 216.5t-219 90.5q-76 0 -142.5 -27.5t-108.5 -66.5t-74 -84t-46 -78t-16 -51z" />
    <glyph glyph-name="f" unicode="f" horiz-adv-x="606" 
d="M233 0l117 836h-196l16 110h197l43 309q12 87 48 152t84 99.5t97 50.5t98 16q82 0 137 -25l-38 -106q-39 20 -109 20q-84 0 -133 -62t-68 -190l-37 -264h222l-17 -110h-221l-117 -836h-123z" />
    <glyph glyph-name="g" unicode="g" horiz-adv-x="1251" 
d="M1247 946l-125 -885q-19 -135 -68 -238t-109 -161t-136 -94.5t-139 -48t-129 -11.5q-144 0 -263.5 53t-177.5 146l109 90q51 -88 142.5 -133t205.5 -45q77 0 141.5 19.5t107.5 47t77.5 71.5t53 79.5t33.5 85t19.5 73.5t9.5 58l19 131h-4q-68 -87 -167 -135.5t-218 -48.5
q-137 0 -245 65.5t-160 177t-34 242.5q19 131 103 243t210 177.5t263 65.5q119 0 204.5 -49t127.5 -136h4l22 160h123zM1063 485q23 155 -71.5 265t-250.5 110q-155 0 -280 -109.5t-148 -265.5q-22 -155 73.5 -264.5t250.5 -109.5t279.5 109.5t146.5 264.5z" />
    <glyph glyph-name="h" unicode="h" horiz-adv-x="1138" 
d="M164 0l217 1548h123l-107 -768h4q50 82 145 136.5t206 54.5q86 0 148 -22.5t94.5 -61.5t51 -91t17.5 -111t-8 -122l-80 -563h-123l78 557q45 303 -195 303q-144 0 -250 -100t-133 -287l-65 -473h-123z" />
    <glyph glyph-name="i" unicode="i" horiz-adv-x="491" 
d="M184 0l133 946h123l-133 -946h-123zM340 1321q4 38 35 65t69 27t61.5 -27t18.5 -65q-6 -38 -37 -65t-69 -27t-61 27t-17 65z" />
    <glyph glyph-name="j" unicode="j" horiz-adv-x="491" 
d="M440 946l-155 -1112q-12 -78 -32 -134t-56 -101.5t-93.5 -68t-136.5 -22.5q-45 0 -94 19l33 108q40 -16 76 -16q48 0 81.5 16t52.5 47.5t28.5 64t15.5 77.5l157 1122h123zM340 1321q4 38 35 65t69 27t61.5 -27t18.5 -65q-6 -38 -37 -65t-69 -27t-61 27t-17 65z" />
    <glyph glyph-name="k" unicode="k" horiz-adv-x="985" 
d="M164 0l217 1548h123l-146 -1032l529 428h180l-549 -432l473 -512h-186l-449 500l-69 -500h-123z" />
    <glyph glyph-name="l" unicode="l" horiz-adv-x="491" 
d="M184 0l217 1548h123l-217 -1548h-123z" />
    <glyph glyph-name="m" unicode="m" horiz-adv-x="1744" 
d="M164 0l96 680q4 35 14 138t13 128h123q-17 -148 -15 -166h6q50 82 145 136.5t206 54.5q99 0 168 -51t88 -154q56 101 151 153t199 52q86 0 148 -22.5t94.5 -61.5t51 -91t17.5 -111t-8 -122l-80 -563h-123l78 557q45 303 -195 303q-65 0 -119.5 -21.5t-90 -55t-62 -78
t-40 -87t-19.5 -86.5l-76 -532h-123l80 569q19 135 -20 213t-136 78q-144 0 -250 -100t-133 -287l-65 -473h-123z" />
    <glyph glyph-name="n" unicode="n" horiz-adv-x="1138" 
d="M164 0l96 680q4 35 14 138t13 128h123q-17 -148 -15 -166h6q50 82 145 136.5t206 54.5q86 0 148 -22.5t94.5 -61.5t51 -91t17.5 -111t-8 -122l-80 -563h-123l78 557q45 303 -195 303q-144 0 -250 -100t-133 -287l-65 -473h-123z" />
    <glyph glyph-name="o" unicode="o" horiz-adv-x="1216" 
d="M176 473q31 217 191 357.5t378 140.5t337.5 -140.5t88.5 -357.5q-29 -217 -189 -357.5t-378 -140.5t-337.5 140.5t-90.5 357.5zM299 473q-22 -164 65.5 -275.5t256.5 -111.5t287.5 111.5t140.5 275.5q24 164 -63.5 275.5t-256.5 111.5t-287.5 -111.5t-142.5 -275.5z" />
    <glyph glyph-name="p" unicode="p" horiz-adv-x="1251" 
d="M72 -467l198 1413h123l-22 -166h4q67 93 179 142t226 49q218 0 337.5 -140.5t88.5 -357.5q-29 -217 -189 -357.5t-378 -140.5q-73 0 -141 20t-126 64t-85 107h-4l-88 -633h-123zM313 473q-22 -161 77 -274t265 -113q169 0 287.5 111.5t140.5 275.5q24 164 -63 275.5
t-256 111.5q-166 0 -297 -113t-154 -274z" />
    <glyph glyph-name="q" unicode="q" horiz-adv-x="1251" 
d="M926 -467l88 633h-4q-67 -93 -179.5 -142t-226.5 -49q-218 0 -337.5 140.5t-90.5 357.5q31 217 191 357.5t378 140.5q114 0 213.5 -49t139.5 -142h4l22 166h123l-198 -1413h-123zM1069 473q23 161 -75.5 274t-264.5 113q-169 0 -287.5 -111.5t-142.5 -275.5
q-22 -164 65.5 -275.5t256.5 -111.5q166 0 296 113t152 274z" />
    <glyph glyph-name="r" unicode="r" horiz-adv-x="681" 
d="M164 0l96 680q4 35 14 138t13 128h123q-17 -148 -15 -166q131 191 328 191q28 0 70 -10l-31 -121q-24 8 -47 8q-152 0 -243.5 -92.5t-113.5 -239.5l-71 -516h-123z" />
    <glyph glyph-name="s" unicode="s" horiz-adv-x="872" 
d="M82 168l119 74q27 -73 96.5 -114.5t155.5 -41.5q85 0 157.5 48t83.5 126q7 46 -12.5 78.5t-57 49t-85.5 30.5t-99.5 23.5t-99 28.5t-83.5 44t-53.5 72.5t-8.5 111.5q19 129 126.5 201t235.5 72q244 0 307 -178l-119 -66q-27 67 -75 100t-129 33q-74 0 -144 -41.5
t-78 -109.5q-7 -46 13 -77t57 -46t85.5 -28t100 -21.5t99.5 -28t83.5 -46t52.5 -76t7 -118.5q-13 -94 -71 -162t-138.5 -99.5t-173.5 -31.5q-126 0 -219 49t-133 144z" />
    <glyph glyph-name="t" unicode="t" horiz-adv-x="681" 
d="M760 946l-17 -110h-270l-86 -617q-9 -63 21 -98t92 -35q60 0 143 33l-4 -111q-101 -33 -166 -33q-85 0 -136 33.5t-66.5 86.5t-6.5 124l86 617h-205l17 110h205l39 273h122l-39 -273h271z" />
    <glyph glyph-name="u" unicode="u" horiz-adv-x="1138" 
d="M1098 946l-97 -680q-6 -40 -15 -144.5t-11 -121.5h-123q16 144 14 166h-6q-50 -82 -144.5 -136.5t-205.5 -54.5q-86 0 -148 22.5t-94.5 61.5t-51 91t-17.5 111t8 122l80 563h123l-78 -557q-45 -303 194 -303q144 0 250 100t131 287l68 473h123z" />
    <glyph glyph-name="v" unicode="v" horiz-adv-x="948" 
d="M418 0l-254 946h139l201 -813l422 813h125l-506 -946h-127z" />
    <glyph glyph-name="w" unicode="w" horiz-adv-x="1441" 
d="M328 0l-164 946h135l119 -792h4l375 792h116l170 -792h4l334 792h123l-411 -946h-127l-175 774h-4l-372 -774h-127z" />
    <glyph glyph-name="x" unicode="x" horiz-adv-x="985" 
d="M12 0l465 512l-276 434h157l211 -358l312 358h153l-395 -434l334 -512h-160l-270 428l-383 -428h-148z" />
    <glyph glyph-name="y" unicode="y" horiz-adv-x="948" 
d="M1051 946l-662 -1239q-104 -199 -289 -199q-46 0 -116 19l26 115q80 -23 109 -23q32 0 60 13.5t50 39t37 48.5t33 57l117 219l-252 950h137l201 -796l418 796h131z" />
    <glyph glyph-name="z" unicode="z" horiz-adv-x="872" 
d="M55 0l11 74l673 762h-538l16 110h709l-11 -74l-671 -761h590l-17 -111h-762z" />
    <glyph glyph-name="braceleft" unicode="{" horiz-adv-x="681" 
d="M772 1499l-14 -98h-47q-59 0 -94.5 -57.5t-47.5 -143.5l-39 -289q-10 -75 -37 -137.5t-58.5 -99t-54.5 -56.5t-38 -26l-2 -4q10 -6 23 -18.5t32 -39t30 -62t17.5 -87t-4.5 -113.5l-41 -291q-10 -85 9 -141.5t77 -56.5h47l-14 -98h-102q-85 0 -123 66t-23 181l43 299
q45 314 -100 314l14 98q41 0 74.5 26t55 72t35.5 99.5t22 117.5l43 297q15 116 72 182t143 66h102z" />
    <glyph glyph-name="bar" unicode="|" horiz-adv-x="704" 
d="M403 1704h109v-2271h-109v2271z" />
    <glyph glyph-name="braceright" unicode="}" horiz-adv-x="681" 
d="M76 -319l14 98h47q59 0 94.5 57.5t47.5 143.5l38 288q10 75 37 138t58.5 99.5t55 56.5t38.5 26l2 4q-10 6 -23 18.5t-32 38.5t-30 61.5t-18 87t5 113.5l41 291q10 86 -9 142.5t-77 56.5h-48l15 98h102q85 0 123 -66.5t23 -181.5l-43 -299q-45 -313 100 -313l-14 -98
q-144 0 -189 -316l-41 -297q-15 -116 -72 -181.5t-143 -65.5h-102z" />
    <glyph glyph-name="asciitilde" unicode="~" horiz-adv-x="1363" 
d="M1188 745l61 -65q-115 -184 -282 -184q-14 0 -29 2t-27.5 4.5t-30 8t-27.5 9t-29.5 12t-27 12t-29 13.5t-26.5 12q-49 23 -73.5 34t-58.5 21.5t-58 10.5q-56 0 -102.5 -36.5t-98.5 -102.5l-59 65q118 184 280 184q14 0 29 -2t27.5 -4.5t30 -8t27.5 -9t29.5 -12t27 -12
t29 -13.5t26.5 -12q140 -66 192 -66q55 0 100.5 36t98.5 103z" />
    <glyph glyph-name="uni00A0" unicode="&#xa0;" horiz-adv-x="532" 
 />
    <glyph glyph-name="exclamdown" unicode="&#xa1;" horiz-adv-x="757" 
d="M254 -455l149 1069h123l-149 -1069h-123zM604 909q-4 -41 -36.5 -69.5t-73.5 -28.5t-66 28.5t-20 69.5q6 41 38.5 70t73.5 29t65.5 -29t18.5 -70z" />
    <glyph glyph-name="cent" unicode="&#xa2;" 
d="M539 96l106 758q-140 -21 -234 -128.5t-114 -248.5q-19 -137 47 -245.5t195 -135.5zM743 856l-108 -770q138 6 256 131l84 -78q-155 -158 -357 -164l-18 -141h-98l20 148q-184 26 -280 164t-68 331q26 191 161.5 326.5t323.5 161.5l21 147h98l-20 -145q194 -3 313 -160
l-108 -74q-85 112 -220 123z" />
    <glyph glyph-name="sterling" unicode="&#xa3;" 
d="M119 0l16 111h215l82 589h-194l16 111h195l32 240q9 58 31 115t62.5 113.5t94.5 99.5t132.5 69.5t169.5 26.5q164 0 276 -115l-94 -98q-88 102 -203 102q-74 0 -136 -29t-101.5 -75t-63.5 -96t-31 -99l-34 -254h338l-17 -111h-338l-82 -589h502l-16 -111h-852z" />
    <glyph glyph-name="currency" unicode="&#xa4;" 
d="M70 291l133 112q-105 133 -78 322q24 187 168 322l-100 112l79 76l101 -115q156 109 332 109q178 0 303 -109l133 115l59 -76l-133 -112q103 -130 78 -322q-27 -191 -168 -322l100 -112l-80 -76l-100 115q-156 -109 -334 -109q-176 0 -301 109l-133 -115zM248 725
q-23 -162 75 -277.5t257 -115.5t289 115.5t153 277.5q23 163 -75 278t-257 115t-289 -115t-153 -278z" />
    <glyph glyph-name="yen" unicode="&#xa5;" 
d="M465 0l51 369h-348l14 98h348l23 158l-14 32h-330l14 99h275l-293 694h139l293 -705l500 705h133l-490 -694h275l-15 -99h-329l-23 -32l-22 -158h348l-15 -98h-348l-51 -369h-135z" />
    <glyph glyph-name="brokenbar" unicode="&#xa6;" horiz-adv-x="704" 
d="M403 1534h107v-795h-107v795zM403 397h107v-792h-107v792z" />
    <glyph glyph-name="section" unicode="&#xa7;" 
d="M500 465l194 -107q66 33 120.5 85.5t62.5 111.5q9 66 -29 117t-94 84l-142 84q-208 -66 -227 -195q0 -21 -2 -36t4 -30.5t9.5 -26t14.5 -22t18.5 -19t21 -16.5t23.5 -15t26 -15zM125 -49l133 61q22 -90 83 -137t157 -47q100 0 181.5 53t94.5 146q6 44 -9.5 81t-47 64
t-74 51.5t-89.5 47.5t-94.5 47.5t-89 55.5t-71.5 67.5t-43.5 87.5t-5.5 112q25 171 254 264q-152 100 -131 260q14 101 81.5 176t157.5 110.5t187 35.5q111 0 193.5 -48t107.5 -145l-129 -69q-41 139 -195 139q-99 0 -177 -52.5t-91 -146.5q-7 -53 19 -96t74 -73.5
t106.5 -59.5t117 -62t105 -72.5t70.5 -99t14 -133.5q-24 -170 -219 -270q64 -41 96 -107t20 -145q-15 -105 -80.5 -184.5t-156 -118.5t-191.5 -39q-134 0 -231.5 62t-126.5 184z" />
    <glyph glyph-name="dieresis" unicode="&#xa8;" horiz-adv-x="491" 
d="M141 1335q4 41 37 70t74 29t66 -29t20 -70q-6 -41 -39 -69.5t-74 -28.5t-65.5 28.5t-18.5 69.5zM530 1335q4 41 37 70t74 29t66 -29t20 -70q-6 -41 -39 -69.5t-74 -28.5t-65.5 28.5t-18.5 69.5z" />
    <glyph glyph-name="copyright" unicode="&#xa9;" horiz-adv-x="1638" 
d="M1341 883h-110q-8 89 -69.5 150.5t-168.5 62.5q-151 0 -254.5 -107t-126.5 -264q-15 -102 11.5 -185.5t95.5 -134.5t170 -51q107 0 187.5 61.5t109.5 151.5h110q-40 -147 -156.5 -229t-265.5 -82q-136 0 -228 61t-128 166.5t-16 241.5q28 208 163.5 338.5t340.5 130.5
q149 0 242 -82t93 -229zM160 725q22 155 102 296t196 243t265.5 162.5t304.5 60.5t287.5 -60.5t220 -162.5t128.5 -243t19 -296t-102.5 -296t-197 -243t-266 -162.5t-304.5 -60.5t-287 60.5t-219.5 162.5t-128 243t-18.5 296zM270 725q-25 -177 41 -327t203.5 -237
t314.5 -87t339.5 87t271 237t133.5 327q18 133 -17 253.5t-110 207.5t-188 138.5t-246 51.5q-177 0 -339.5 -87t-270.5 -237t-132 -327z" />
    <glyph glyph-name="ordfeminine" unicode="&#xaa;" horiz-adv-x="690" 
d="M555 1233h131l2 18q6 71 -26 104.5t-125 33.5q-59 0 -104.5 -17t-98.5 -55l-41 78q109 80 278 80q126 0 179 -51.5t36 -172.5l-22 -164q-21 -147 -21 -206h-100q-1 20 -0.5 29.5t3 31t3.5 33.5h-4q-80 -107 -227 -107q-96 0 -155 41t-48 125q8 57 41 98t83.5 62t103 30
t112.5 9zM674 1147h-78q-49 0 -92.5 -4.5t-87 -16t-71.5 -34t-32 -54.5q-4 -36 37.5 -60t98.5 -24q97 0 155.5 57t67.5 122z" />
    <glyph glyph-name="guillemotleft" unicode="&#xab;" horiz-adv-x="985" 
d="M420 70l-223 415l340 416l77 -59l-288 -357l192 -360zM760 70l-223 415l340 416l77 -59l-288 -357l192 -360z" />
    <glyph glyph-name="logicalnot" unicode="&#xac;" horiz-adv-x="1363" 
d="M1145 274l61 445h-946l14 98h1045l-76 -543h-98z" />
    <glyph glyph-name="uni00AD" unicode="&#xad;" horiz-adv-x="681" 
d="M150 430l14 111h506l-15 -111h-505z" />
    <glyph glyph-name="registered" unicode="&#xae;" horiz-adv-x="1638" 
d="M748 674l-54 -385h-110l123 878h337q146 0 203 -60.5t39 -182.5q-30 -213 -256 -250l209 -385h-125l-209 385h-157zM803 1069l-41 -297h141q37 0 61.5 1.5t58 6t55.5 14.5t44.5 26t35.5 42.5t18 61.5q6 40 -7 70t-40.5 45.5t-59.5 22.5t-70 7h-196zM160 725
q22 155 102 296t196 243t265.5 162.5t304.5 60.5t287.5 -60.5t220 -162.5t128.5 -243t19 -296t-102.5 -296t-197 -243t-266 -162.5t-304.5 -60.5t-287 60.5t-219.5 162.5t-128 243t-18.5 296zM270 725q-25 -177 41 -327t203.5 -237t314.5 -87t339.5 87t271 237t133.5 327
q18 133 -17 253.5t-110 207.5t-188 138.5t-246 51.5q-177 0 -339.5 -87t-270.5 -237t-132 -327z" />
    <glyph glyph-name="macron" unicode="&#xaf;" horiz-adv-x="491" 
d="M705 1339l-15 -98h-540l14 98h541z" />
    <glyph glyph-name="degree" unicode="&#xb0;" horiz-adv-x="819" 
d="M535 885q-123 0 -197 86.5t-57 210.5q17 123 114.5 208t220.5 85t197 -85t57 -208q-17 -124 -114.5 -210.5t-220.5 -86.5zM547 983q82 0 148.5 58t76.5 139q11 82 -38.5 139t-131.5 57t-147.5 -57t-75.5 -139q-11 -82 38 -139.5t130 -57.5z" />
    <glyph glyph-name="plusminus" unicode="&#xb1;" horiz-adv-x="1363" 
d="M254 670l14 98h467l51 375h99l-51 -375h479l-15 -98h-479l-53 -375h-98l53 375h-467zM182 98l13 99h1028l-13 -99h-1028z" />
    <glyph glyph-name="twosuperior" unicode="&#xb2;" horiz-adv-x="692" 
d="M131 592l12 88l400 344q42 36 61 53.5t46.5 48t40.5 59t18 62.5q8 58 -34 93.5t-122 35.5q-135 0 -193 -121l-102 9q28 74 84.5 124t114 68.5t114.5 18.5q122 0 192.5 -60.5t55.5 -163.5q-6 -48 -26 -90t-57.5 -83.5t-66.5 -68.5t-83 -71l-295 -248h450l-12 -98h-598z
" />
    <glyph glyph-name="threesuperior" unicode="&#xb3;" horiz-adv-x="692" 
d="M401 999l13 99h47q76 0 141 37.5t76 115.5q8 53 -31 89t-110 36q-116 0 -195 -102l-72 51q116 150 281 150q115 0 182.5 -61.5t54.5 -160.5q-9 -68 -64 -123t-132 -79v-4q86 -12 129.5 -73.5t32.5 -146.5q-17 -113 -110 -180t-222 -67q-216 0 -260 182l102 37
q29 -121 172 -121q70 0 135 47.5t72 108.5q6 47 -7.5 80t-44.5 51t-69 26t-86 8h-35z" />
    <glyph glyph-name="acute" unicode="&#xb4;" horiz-adv-x="491" 
d="M289 1155l256 295h164l-318 -295h-102z" />
    <glyph glyph-name="mu" unicode="&#xb5;" horiz-adv-x="1138" 
d="M1098 946l-97 -680q-6 -40 -15 -144.5t-11 -121.5h-123q16 144 14 166h-6q-50 -82 -144.5 -136.5t-205.5 -54.5q-152 0 -227 78l-74 -520h-121l199 1413h123l-78 -557q-45 -303 194 -303q144 0 250 100t131 287l68 473h123z" />
    <glyph glyph-name="paragraph" unicode="&#xb6;" horiz-adv-x="1228" 
d="M510 -258l129 920q-179 0 -285.5 114t-83.5 273q28 192 163 296.5t351 104.5h465l-241 -1708h-123l227 1610h-252l-227 -1610h-123z" />
    <glyph glyph-name="periodcentered" unicode="&#xb7;" horiz-adv-x="532" 
d="M260 651q4 41 37 70t74 29t66 -29t20 -70q-6 -41 -39 -69.5t-74 -28.5t-65.5 28.5t-18.5 69.5z" />
    <glyph glyph-name="cedilla" unicode="&#xb8;" horiz-adv-x="491" 
d="M350 0l-114 -131l4 -4q25 14 65 14q71 0 115 -38.5t35 -108.5q-9 -58 -50.5 -99t-94 -58t-109.5 -17q-104 0 -189 43l37 65q60 -35 152 -35q47 0 90.5 22.5t50.5 65.5q6 42 -25.5 64t-76.5 22q-50 0 -93 -16l-28 31l153 180h78z" />
    <glyph glyph-name="onesuperior" unicode="&#xb9;" horiz-adv-x="692" 
d="M446 592l107 760l-195 -135l-41 69l250 176h111l-121 -870h-111z" />
    <glyph glyph-name="ordmasculine" unicode="&#xba;" horiz-adv-x="790" 
d="M233 1171q20 135 120.5 219.5t246.5 84.5q143 0 224 -84t61 -220q-19 -133 -123 -218t-246 -85q-147 0 -224.5 84.5t-58.5 218.5zM332 1171q-11 -89 43 -153t151 -64t172.5 63.5t87.5 153.5q14 94 -40.5 156t-157.5 62q-96 0 -170 -65t-86 -153z" />
    <glyph glyph-name="guillemotright" unicode="&#xbb;" horiz-adv-x="985" 
d="M362 901l222 -416l-338 -415l-78 59l287 356l-191 361zM702 901l222 -416l-338 -415l-78 59l287 356l-191 361z" />
    <glyph glyph-name="onequarter" unicode="&#xbc;" horiz-adv-x="1593" 
d="M1278 0l29 209h-389l14 92l459 567h120l-79 -561h131l-15 -98h-131l-28 -209h-111zM1321 307l57 414h-4l-332 -414h279zM383 592l106 760l-194 -135l-41 69l250 176h110l-120 -870h-111zM233 -12l1149 1532l86 -58l-1151 -1532z" />
    <glyph glyph-name="onehalf" unicode="&#xbd;" horiz-adv-x="1593" 
d="M367 592l106 760l-194 -135l-41 69l249 176h111l-121 -870h-110zM215 -12l1149 1532l86 -58l-1151 -1532zM938 0l12 88l402 344q42 36 61 53.5t46 48t40 59t17 62.5q8 58 -33 93.5t-121 35.5q-72 0 -120 -34t-73 -86l-104 8q28 74 85 124t115 68.5t115 18.5
q122 0 191.5 -60.5t54.5 -163.5q-6 -48 -26 -90t-57.5 -84t-65.5 -67.5t-82 -71.5l-295 -248h450l-14 -98h-598z" />
    <glyph glyph-name="threequarters" unicode="&#xbe;" horiz-adv-x="1593" 
d="M1311 0l28 209h-389l15 92l458 567h121l-80 -561h131l-14 -98h-131l-29 -209h-110zM1350 307l57 414h-4l-332 -414h279zM389 999l12 99h48q50 3 92 16t80 48t45 89q8 53 -31.5 89t-110.5 36q-115 0 -194 -102l-72 51q116 150 281 150q115 0 182.5 -61.5t54.5 -160.5
q-9 -68 -64 -123t-132 -79v-4q86 -12 129 -73.5t32 -146.5q-17 -113 -109.5 -180t-221.5 -67q-216 0 -263 182l105 37q29 -121 172 -121q70 0 135 47.5t72 108.5q6 47 -7.5 80t-44.5 51t-69 26t-86 8h-35zM338 -12l1149 1532l86 -58l-1151 -1532z" />
    <glyph glyph-name="questiondown" unicode="&#xbf;" horiz-adv-x="948" 
d="M616 614l-24 -172q-7 -55 -31.5 -103t-57.5 -83.5t-71.5 -69t-77.5 -67t-72 -68.5t-57.5 -82.5t-31.5 -101.5q-15 -111 39 -179.5t165 -68.5q105 0 184 64.5t117 173.5l131 -17q-49 -155 -170.5 -243.5t-275.5 -88.5q-166 0 -258.5 94t-69.5 259q10 70 36.5 127.5
t61.5 97t75 74t80 67t74 67.5t59.5 83t33.5 106l19 131h122zM692 909q-4 -41 -36.5 -69.5t-73.5 -28.5t-66 28.5t-20 69.5q6 41 38.5 70t73.5 29t65.5 -29t18.5 -70z" />
    <glyph glyph-name="Agrave" unicode="&#xc0;" horiz-adv-x="1402" 
d="M10 0l838 1450h139l406 -1450h-152l-104 385h-768l-217 -385h-142zM1106 508l-217 795l-449 -795h666zM866 1835l172 -295h-102l-234 295h164z" />
    <glyph glyph-name="Aacute" unicode="&#xc1;" horiz-adv-x="1402" 
d="M10 0l838 1450h139l406 -1450h-152l-104 385h-768l-217 -385h-142zM1106 508l-217 795l-449 -795h666zM801 1540l254 295h164l-316 -295h-102z" />
    <glyph glyph-name="Acircumflex" unicode="&#xc2;" horiz-adv-x="1402" 
d="M10 0l838 1450h139l406 -1450h-152l-104 385h-768l-217 -385h-142zM1106 508l-217 795l-449 -795h666zM627 1540l262 295h143l180 -295h-133l-135 221l-196 -221h-121z" />
    <glyph glyph-name="Atilde" unicode="&#xc3;" horiz-adv-x="1402" 
d="M10 0l838 1450h139l406 -1450h-152l-104 385h-768l-217 -385h-142zM1106 508l-217 795l-449 -795h666zM678 1575h-74q21 81 76 139q60 70 137 70q60 0 148 -51q84 -47 122 -47q41 0 69 28t42 70h74q-20 -82 -68 -142q-57 -67 -133 -67q-10 0 -20 1.5t-18 3t-19.5 5.5
t-17.5 6t-19 7.5t-17 7.5t-18.5 9.5t-17.5 8.5q-7 3 -26 13.5t-27.5 14.5t-23 10t-26.5 8.5t-24 2.5q-44 0 -74 -28t-45 -70z" />
    <glyph glyph-name="Adieresis" unicode="&#xc4;" horiz-adv-x="1402" 
d="M10 0l838 1450h139l406 -1450h-152l-104 385h-768l-217 -385h-142zM1106 508l-217 795l-449 -795h666zM651 1720q6 41 39 70t74 29t65.5 -29t18.5 -70t-39 -69.5t-74 -28.5t-65.5 28.5t-18.5 69.5zM1040 1720q6 41 39 70t74 29t65.5 -29t18.5 -70t-39 -69.5t-74 -28.5
t-65.5 28.5t-18.5 69.5z" />
    <glyph glyph-name="Aring" unicode="&#xc5;" horiz-adv-x="1402" 
d="M10 0l838 1450h139l406 -1450h-152l-104 385h-768l-217 -385h-142zM1106 508l-217 795l-449 -795h666zM754 1714q11 79 75.5 137t143.5 58q78 0 125 -59.5t35 -137.5q-9 -76 -73.5 -134t-141.5 -58q-79 0 -127.5 58t-36.5 136zM1061 1714q6 52 -22 86.5t-78 34.5
q-51 0 -89.5 -35.5t-46.5 -87.5q-6 -51 23 -85t78 -34q51 0 89 35t46 86z" />
    <glyph glyph-name="AE" unicode="&#xc6;" horiz-adv-x="1896" 
d="M-10 0l1149 1450h825l-18 -123h-600l-72 -516h565l-18 -123h-566l-79 -565h616l-16 -123h-752l53 385h-639l-305 -385h-143zM1096 508l114 819h-24l-649 -819h559z" />
    <glyph glyph-name="Ccedilla" unicode="&#xc7;" horiz-adv-x="1441" 
d="M1325 311l100 -84q-230 -264 -577 -264q-37 0 -53 2l-84 -96l4 -4q25 14 65 14q70 0 114.5 -38.5t35.5 -108.5q-9 -58 -50.5 -99t-94 -58t-109.5 -17q-104 0 -189 43l37 65q60 -35 152 -35q47 0 90.5 22.5t50.5 65.5q6 42 -25.5 64t-76.5 22q-49 0 -92 -16l-29 31
l131 153q-181 25 -308.5 127.5t-182.5 265t-27 359.5q30 219 149 392.5t304 271.5t403 98q324 0 467 -227l-123 -93q-52 97 -149 147t-211 50q-185 0 -338.5 -85t-247.5 -229.5t-119 -324.5q-26 -180 27.5 -324.5t182.5 -229.5t314 -85q118 0 245 57.5t214 167.5z" />
    <glyph glyph-name="Egrave" unicode="&#xc8;" horiz-adv-x="1214" 
d="M199 0l204 1450h887l-18 -123h-752l-71 -516h704l-18 -123h-705l-80 -565h785l-17 -123h-919zM772 1835l172 -295h-102l-234 295h164z" />
    <glyph glyph-name="Eacute" unicode="&#xc9;" horiz-adv-x="1214" 
d="M199 0l204 1450h887l-18 -123h-752l-71 -516h704l-18 -123h-705l-80 -565h785l-17 -123h-919zM707 1540l254 295h163l-315 -295h-102z" />
    <glyph glyph-name="Ecircumflex" unicode="&#xca;" horiz-adv-x="1214" 
d="M199 0l204 1450h887l-18 -123h-752l-71 -516h704l-18 -123h-705l-80 -565h785l-17 -123h-919zM532 1540l263 295h143l180 -295h-133l-135 221l-197 -221h-121z" />
    <glyph glyph-name="Edieresis" unicode="&#xcb;" horiz-adv-x="1214" 
d="M199 0l204 1450h887l-18 -123h-752l-71 -516h704l-18 -123h-705l-80 -565h785l-17 -123h-919zM557 1720q6 41 39 70t74 29t65.5 -29t18.5 -70t-39 -69.5t-74 -28.5t-65.5 28.5t-18.5 69.5zM946 1720q6 41 39 70t74 29t65.5 -29t18.5 -70t-39 -69.5t-74 -28.5t-65.5 28.5
t-18.5 69.5z" />
    <glyph glyph-name="Igrave" unicode="&#xcc;" horiz-adv-x="532" 
d="M199 0l204 1450h136l-205 -1450h-135zM430 1835l172 -295h-102l-234 295h164z" />
    <glyph glyph-name="Iacute" unicode="&#xcd;" horiz-adv-x="532" 
d="M199 0l204 1450h136l-205 -1450h-135zM365 1540l253 295h164l-315 -295h-102z" />
    <glyph glyph-name="Icircumflex" unicode="&#xce;" horiz-adv-x="532" 
d="M199 0l204 1450h136l-205 -1450h-135zM190 1540l263 295h143l180 -295h-133l-135 221l-197 -221h-121z" />
    <glyph glyph-name="Idieresis" unicode="&#xcf;" horiz-adv-x="532" 
d="M199 0l204 1450h136l-205 -1450h-135zM215 1720q6 41 39 70t74 29t65.5 -29t18.5 -70t-39 -69.5t-74 -28.5t-65.5 28.5t-18.5 69.5zM604 1720q6 41 39 70t74 29t65.5 -29t18.5 -70t-39 -69.5t-74 -28.5t-65.5 28.5t-18.5 69.5z" />
    <glyph glyph-name="Eth" unicode="&#xd0;" horiz-adv-x="1517" 
d="M502 1327l-72 -516h528l-16 -111h-528l-82 -577h278q117 0 222 22.5t198 70t164.5 117.5t120 170t65.5 222t-3.5 222t-72 170t-130.5 117.5t-178 70t-216 22.5h-278zM180 0l99 700h-160l16 111h160l90 639h449q121 0 222 -22t170 -57t122.5 -86t85 -102t52 -112.5
t28 -110t8.5 -101.5t-1 -80.5t-5 -53.5q-5 -36 -14 -74.5t-37 -114.5t-67 -142t-109 -141.5t-157 -128.5t-217.5 -88.5t-285.5 -35.5h-449z" />
    <glyph glyph-name="Ntilde" unicode="&#xd1;" horiz-adv-x="1593" 
d="M199 0l204 1450h175l702 -1270h4l180 1270h135l-204 -1450h-174l-705 1270h-4l-178 -1270h-135zM772 1575h-74q21 81 76 139q60 70 137 70q60 0 148 -51q84 -47 123 -47q41 0 68.5 28t41.5 70h74q-20 -82 -68 -142q-57 -67 -133 -67q-10 0 -20 1.5t-18 3t-19.5 5.5
t-17.5 6t-19 7.5t-17 7.5t-18.5 9.5t-17.5 8.5q-7 3 -26 13.5t-27.5 14.5t-23 10t-26.5 8.5t-24 2.5q-44 0 -74 -28t-45 -70z" />
    <glyph glyph-name="Ograve" unicode="&#xd2;" horiz-adv-x="1708" 
d="M207 725q30 219 149 392.5t304 271.5t403 98t375.5 -98t227.5 -271.5t40 -392.5q-31 -219 -150.5 -392.5t-304.5 -271.5t-403 -98t-375.5 98t-227 271.5t-38.5 392.5zM342 725q-26 -180 27.5 -324.5t182.5 -229.5t314 -85t338 85t247 229.5t120 324.5q18 135 -8.5 252
t-92.5 202.5t-175 135t-248 49.5q-185 0 -338.5 -85t-247.5 -229.5t-119 -324.5zM1018 1835l172 -295h-103l-233 295h164z" />
    <glyph glyph-name="Oacute" unicode="&#xd3;" horiz-adv-x="1708" 
d="M207 725q30 219 149 392.5t304 271.5t403 98t375.5 -98t227.5 -271.5t40 -392.5q-31 -219 -150.5 -392.5t-304.5 -271.5t-403 -98t-375.5 98t-227 271.5t-38.5 392.5zM342 725q-26 -180 27.5 -324.5t182.5 -229.5t314 -85t338 85t247 229.5t120 324.5q18 135 -8.5 252
t-92.5 202.5t-175 135t-248 49.5q-185 0 -338.5 -85t-247.5 -229.5t-119 -324.5zM952 1540l254 295h164l-315 -295h-103z" />
    <glyph glyph-name="Ocircumflex" unicode="&#xd4;" horiz-adv-x="1708" 
d="M207 725q30 219 149 392.5t304 271.5t403 98t375.5 -98t227.5 -271.5t40 -392.5q-31 -219 -150.5 -392.5t-304.5 -271.5t-403 -98t-375.5 98t-227 271.5t-38.5 392.5zM342 725q-26 -180 27.5 -324.5t182.5 -229.5t314 -85t338 85t247 229.5t120 324.5q18 135 -8.5 252
t-92.5 202.5t-175 135t-248 49.5q-185 0 -338.5 -85t-247.5 -229.5t-119 -324.5zM778 1540l262 295h144l180 -295h-133l-135 221l-197 -221h-121z" />
    <glyph glyph-name="Otilde" unicode="&#xd5;" horiz-adv-x="1708" 
d="M207 725q30 219 149 392.5t304 271.5t403 98t375.5 -98t227.5 -271.5t40 -392.5q-31 -219 -150.5 -392.5t-304.5 -271.5t-403 -98t-375.5 98t-227 271.5t-38.5 392.5zM342 725q-26 -180 27.5 -324.5t182.5 -229.5t314 -85t338 85t247 229.5t120 324.5q18 135 -8.5 252
t-92.5 202.5t-175 135t-248 49.5q-185 0 -338.5 -85t-247.5 -229.5t-119 -324.5zM829 1575h-73q21 82 75 139q60 70 138 70q59 0 147 -51q84 -47 123 -47q41 0 69 28t42 70h73q-20 -83 -67 -142q-57 -67 -133 -67q-9 0 -17.5 0.5t-17.5 3t-16 4t-17.5 5.5t-15.5 6t-17 7.5
t-15 7t-16.5 8t-15.5 7.5q-7 3 -26 13.5t-27.5 14.5t-23 10t-26.5 8.5t-24 2.5q-44 0 -74 -28t-45 -70z" />
    <glyph glyph-name="Odieresis" unicode="&#xd6;" horiz-adv-x="1708" 
d="M207 725q30 219 149 392.5t304 271.5t403 98t375.5 -98t227.5 -271.5t40 -392.5q-31 -219 -150.5 -392.5t-304.5 -271.5t-403 -98t-375.5 98t-227 271.5t-38.5 392.5zM342 725q-26 -180 27.5 -324.5t182.5 -229.5t314 -85t338 85t247 229.5t120 324.5q18 135 -8.5 252
t-92.5 202.5t-175 135t-248 49.5q-185 0 -338.5 -85t-247.5 -229.5t-119 -324.5zM803 1720q6 41 38.5 70t73.5 29t65.5 -29t18.5 -70t-38.5 -69.5t-73.5 -28.5t-65.5 28.5t-18.5 69.5zM1192 1720q6 41 39 70t74 29t65.5 -29t18.5 -70t-39 -69.5t-74 -28.5t-65.5 28.5
t-18.5 69.5z" />
    <glyph glyph-name="multiply" unicode="&#xd7;" horiz-adv-x="1363" 
d="M432 1096l348 -406l465 406l58 -70l-463 -405l348 -406l-80 -70l-346 408l-465 -408l-61 70l466 406l-350 405z" />
    <glyph glyph-name="Oslash" unicode="&#xd8;" horiz-adv-x="1708" 
d="M143 31l181 168q-163 213 -117 526q30 219 149 392.5t304 271.5t403 98q280 0 459 -162l174 166l61 -64l-176 -165q81 -102 114.5 -239.5t10.5 -297.5q-31 -219 -150.5 -392.5t-304.5 -271.5t-403 -98q-289 0 -465 170l-176 -166zM426 295l993 936q-143 133 -372 133
q-185 0 -338.5 -85t-247.5 -229.5t-119 -324.5q-38 -257 84 -430zM1479 1165l-996 -938q138 -141 383 -141q185 0 338 85t247 229.5t120 324.5q19 129 -5.5 242.5t-86.5 197.5z" />
    <glyph glyph-name="Ugrave" unicode="&#xd9;" horiz-adv-x="1400" 
d="M1434 1450l-127 -895q-13 -96 -42 -180.5t-79 -161t-117.5 -131.5t-163.5 -87t-211 -32q-96 0 -173 22.5t-127.5 62.5t-86 95t-49.5 121t-17.5 140t9.5 151l127 895h135l-123 -860q-7 -48 -9 -93t2 -97t16 -95.5t37 -85t61 -70t91.5 -46t125.5 -17.5q97 0 175 33.5
t126 83.5t83.5 121t52 133.5t26.5 132.5l122 860h136zM864 1835l172 -295h-102l-234 295h164z" />
    <glyph glyph-name="Uacute" unicode="&#xda;" horiz-adv-x="1400" 
d="M1434 1450l-127 -895q-13 -96 -42 -180.5t-79 -161t-117.5 -131.5t-163.5 -87t-211 -32q-96 0 -173 22.5t-127.5 62.5t-86 95t-49.5 121t-17.5 140t9.5 151l127 895h135l-123 -860q-7 -48 -9 -93t2 -97t16 -95.5t37 -85t61 -70t91.5 -46t125.5 -17.5q97 0 175 33.5
t126 83.5t83.5 121t52 133.5t26.5 132.5l122 860h136zM799 1540l254 295h164l-316 -295h-102z" />
    <glyph glyph-name="Ucircumflex" unicode="&#xdb;" horiz-adv-x="1400" 
d="M1434 1450l-127 -895q-13 -96 -42 -180.5t-79 -161t-117.5 -131.5t-163.5 -87t-211 -32q-96 0 -173 22.5t-127.5 62.5t-86 95t-49.5 121t-17.5 140t9.5 151l127 895h135l-123 -860q-7 -48 -9 -93t2 -97t16 -95.5t37 -85t61 -70t91.5 -46t125.5 -17.5q97 0 175 33.5
t126 83.5t83.5 121t52 133.5t26.5 132.5l122 860h136zM625 1540l262 295h143l180 -295h-133l-135 221l-197 -221h-120z" />
    <glyph glyph-name="Udieresis" unicode="&#xdc;" horiz-adv-x="1400" 
d="M1434 1450l-127 -895q-13 -96 -42 -180.5t-79 -161t-117.5 -131.5t-163.5 -87t-211 -32q-96 0 -173 22.5t-127.5 62.5t-86 95t-49.5 121t-17.5 140t9.5 151l127 895h135l-123 -860q-7 -48 -9 -93t2 -97t16 -95.5t37 -85t61 -70t91.5 -46t125.5 -17.5q97 0 175 33.5
t126 83.5t83.5 121t52 133.5t26.5 132.5l122 860h136zM649 1720q6 41 39 70t74 29t65.5 -29t18.5 -70t-39 -69.5t-74 -28.5t-65.5 28.5t-18.5 69.5zM1038 1720q6 41 39 70t74 29t65.5 -29t18.5 -70t-39 -69.5t-74 -28.5t-65.5 28.5t-18.5 69.5z" />
    <glyph glyph-name="Yacute" unicode="&#xdd;" horiz-adv-x="1175" 
d="M520 0l88 625l-415 825h161l340 -688l547 688h152l-650 -825l-88 -625h-135zM686 1540l254 295h164l-316 -295h-102z" />
    <glyph glyph-name="Thorn" unicode="&#xde;" horiz-adv-x="1175" 
d="M199 0l204 1450h134l-45 -320h284q66 0 126 -10.5t119.5 -37.5t99.5 -68.5t59.5 -110t7.5 -155.5q-13 -95 -59.5 -169t-114.5 -119t-148.5 -68t-167.5 -23h-313l-51 -369h-135zM475 1008l-72 -516h308q61 0 115.5 13.5t103 42.5t81 80.5t42.5 119.5q10 67 -10 118.5
t-61.5 81.5t-94 45t-113.5 15h-299z" />
    <glyph glyph-name="germandbls" unicode="&#xdf;" horiz-adv-x="1214" 
d="M662 827l14 111h31q124 0 210 71.5t105 192.5q17 124 -47.5 192t-183.5 68q-81 0 -144.5 -30.5t-105 -85t-67 -122t-36.5 -149.5l-151 -1075h-123l153 1094q30 215 162 347t338 132q165 0 258.5 -97.5t69.5 -269.5q-17 -119 -84 -203t-164 -112v-4q317 -62 264 -434
q-30 -218 -188 -341.5t-383 -123.5q-55 0 -94 10l16 119q45 -19 106 -19q165 0 281 96.5t139 256.5q26 183 -71.5 279.5t-261.5 96.5h-43z" />
    <glyph glyph-name="agrave" unicode="&#xe0;" horiz-adv-x="1062" 
d="M987 629l-33 -232q-36 -265 -36 -397h-115q-3 68 10 154h-4q-67 -92 -153 -135.5t-205 -43.5q-63 0 -118.5 16t-99.5 48.5t-64.5 88.5t-10.5 128q43 317 567 317h143l9 58q18 117 -47 173t-187 56q-165 0 -303 -106l-61 84q74 62 179 97.5t201 35.5q179 0 266 -84
t62 -258zM856 475h-135q-82 0 -153 -11t-134.5 -34.5t-104 -66.5t-48.5 -101q-11 -82 47.5 -129t142.5 -47q94 0 165 28t113 77t65 103t32 118zM643 1450l170 -295h-102l-232 295h164z" />
    <glyph glyph-name="aacute" unicode="&#xe1;" horiz-adv-x="1062" 
d="M987 629l-33 -232q-36 -265 -36 -397h-115q-3 68 10 154h-4q-67 -92 -153 -135.5t-205 -43.5q-63 0 -118.5 16t-99.5 48.5t-64.5 88.5t-10.5 128q43 317 567 317h143l9 58q18 117 -47 173t-187 56q-165 0 -303 -106l-61 84q74 62 179 97.5t201 35.5q179 0 266 -84
t62 -258zM856 475h-135q-82 0 -153 -11t-134.5 -34.5t-104 -66.5t-48.5 -101q-11 -82 47.5 -129t142.5 -47q94 0 165 28t113 77t65 103t32 118zM575 1155l256 295h164l-317 -295h-103z" />
    <glyph glyph-name="acircumflex" unicode="&#xe2;" horiz-adv-x="1062" 
d="M987 629l-33 -232q-36 -265 -36 -397h-115q-3 68 10 154h-4q-67 -92 -153 -135.5t-205 -43.5q-63 0 -118.5 16t-99.5 48.5t-64.5 88.5t-10.5 128q43 317 567 317h143l9 58q18 117 -47 173t-187 56q-165 0 -303 -106l-61 84q74 62 179 97.5t201 35.5q179 0 266 -84
t62 -258zM856 475h-135q-82 0 -153 -11t-134.5 -34.5t-104 -66.5t-48.5 -101q-11 -82 47.5 -129t142.5 -47q94 0 165 28t113 77t65 103t32 118zM401 1155l265 295h143l178 -295h-133l-135 221l-197 -221h-121z" />
    <glyph glyph-name="atilde" unicode="&#xe3;" horiz-adv-x="1062" 
d="M987 629l-33 -232q-36 -265 -36 -397h-115q-3 68 10 154h-4q-67 -92 -153 -135.5t-205 -43.5q-63 0 -118.5 16t-99.5 48.5t-64.5 88.5t-10.5 128q43 317 567 317h143l9 58q18 117 -47 173t-187 56q-165 0 -303 -106l-61 84q74 62 179 97.5t201 35.5q179 0 266 -84
t62 -258zM856 475h-135q-82 0 -153 -11t-134.5 -34.5t-104 -66.5t-48.5 -101q-11 -82 47.5 -129t142.5 -47q94 0 165 28t113 77t65 103t32 118zM455 1190h-74q20 79 74 139q63 70 139 70q57 0 145 -51q4 -2 18 -9.5t19 -10t16.5 -8.5t18.5 -8.5t16.5 -6t18 -4.5t16.5 -1
q41 0 70 29t43 70h74q-23 -87 -74.5 -148t-126.5 -61q-52 0 -148 49q-6 3 -22 11.5t-23 12t-20.5 9.5t-22.5 8.5t-20 5t-21 2.5q-80 0 -116 -98z" />
    <glyph glyph-name="adieresis" unicode="&#xe4;" horiz-adv-x="1062" 
d="M987 629l-33 -232q-36 -265 -36 -397h-115q-3 68 10 154h-4q-67 -92 -153 -135.5t-205 -43.5q-63 0 -118.5 16t-99.5 48.5t-64.5 88.5t-10.5 128q43 317 567 317h143l9 58q18 117 -47 173t-187 56q-165 0 -303 -106l-61 84q74 62 179 97.5t201 35.5q179 0 266 -84
t62 -258zM856 475h-135q-82 0 -153 -11t-134.5 -34.5t-104 -66.5t-48.5 -101q-11 -82 47.5 -129t142.5 -47q94 0 165 28t113 77t65 103t32 118zM428 1335q4 41 37 70t74 29t66 -29t20 -70q-6 -41 -39 -69.5t-74 -28.5t-65.5 28.5t-18.5 69.5zM817 1335q4 41 37 70t74 29
t66 -29t20 -70q-6 -41 -39 -69.5t-74 -28.5t-65.5 28.5t-18.5 69.5z" />
    <glyph glyph-name="aring" unicode="&#xe5;" horiz-adv-x="1062" 
d="M987 629l-33 -232q-36 -265 -36 -397h-115q-3 68 10 154h-4q-67 -92 -153 -135.5t-205 -43.5q-63 0 -118.5 16t-99.5 48.5t-64.5 88.5t-10.5 128q43 317 567 317h143l9 58q18 117 -47 173t-187 56q-165 0 -303 -106l-61 84q74 62 179 97.5t201 35.5q179 0 266 -84
t62 -258zM856 475h-135q-82 0 -153 -11t-134.5 -34.5t-104 -66.5t-48.5 -101q-11 -82 47.5 -129t142.5 -47q94 0 165 28t113 77t65 103t32 118zM528 1329q11 78 77 136.5t145 58.5q78 0 124 -59.5t35 -137.5q-11 -76 -74.5 -134t-140.5 -58q-79 0 -128 57.5t-38 136.5z
M836 1329q8 51 -20 86t-79 35q-50 0 -88.5 -35.5t-46.5 -87.5q-7 -51 21.5 -85t78.5 -34q51 0 89.5 35t44.5 86z" />
    <glyph glyph-name="ae" unicode="&#xe6;" horiz-adv-x="1744" 
d="M881 553l2 18q42 289 -250 289q-165 0 -303 -106l-62 84q74 62 179.5 97.5t201.5 35.5q136 0 219.5 -44.5t120.5 -152.5q63 93 167.5 145t207.5 52q88 0 159.5 -26.5t124 -80t73.5 -143t5 -207.5l-10 -72h-729q-27 -153 46 -254.5t233 -101.5q86 0 162 40t131 112l88 -70
q-95 -104 -191 -148.5t-227 -44.5q-130 0 -218.5 57.5t-121.5 176.5q-73 -121 -189.5 -177.5t-259.5 -56.5q-63 0 -118.5 16t-99.5 48.5t-64.5 88.5t-10.5 128q5 41 20 78t51 78.5t88.5 71.5t140 49.5t198.5 19.5h236zM864 442h-239q-82 0 -146.5 -13.5t-101.5 -33
t-61.5 -46t-33.5 -47t-12 -40.5q-11 -82 48 -129t143 -47q180 0 280.5 99t122.5 257zM1004 553h606q18 136 -45.5 221.5t-212.5 85.5q-137 0 -233.5 -88.5t-114.5 -218.5z" />
    <glyph glyph-name="ccedilla" unicode="&#xe7;" horiz-adv-x="985" 
d="M893 217l84 -78q-161 -164 -373 -164q-19 0 -29 2l-92 -108l4 -4q25 14 66 14q70 0 114 -38.5t35 -108.5q-9 -58 -50.5 -99t-93.5 -58t-109 -17q-104 0 -189 43l37 65q60 -35 152 -35q47 0 90.5 22.5t50.5 65.5q6 42 -26 64t-77 22q-49 0 -92 -16l-28 31l139 166
q-173 29 -264.5 162.5t-65.5 324.5q31 217 191 357.5t378 140.5q102 0 186 -42.5t142 -121.5l-108 -74q-96 127 -236 127q-169 0 -287.5 -111.5t-142.5 -275.5q-22 -164 65.5 -275.5t256.5 -111.5q148 0 272 131z" />
    <glyph glyph-name="egrave" unicode="&#xe8;" horiz-adv-x="1138" 
d="M944 254l80 -76q-166 -203 -438 -203q-215 0 -327 139.5t-81 360.5q29 213 183 354.5t360 141.5q71 0 131.5 -17.5t103.5 -48.5t76 -73.5t49.5 -91.5t23.5 -103t-3 -109l-12 -86h-795q-1 -22 -2.5 -51.5t7.5 -63.5t20.5 -68t37 -65t57.5 -55t81 -38.5t108 -14.5
q95 0 189.5 46t150.5 122zM311 553h672q17 126 -66 216.5t-219 90.5q-76 0 -142.5 -27.5t-108.5 -66.5t-74 -84t-46 -78t-16 -51zM680 1450l170 -295h-102l-232 295h164z" />
    <glyph glyph-name="eacute" unicode="&#xe9;" horiz-adv-x="1138" 
d="M944 254l80 -76q-166 -203 -438 -203q-215 0 -327 139.5t-81 360.5q29 213 183 354.5t360 141.5q71 0 131.5 -17.5t103.5 -48.5t76 -73.5t49.5 -91.5t23.5 -103t-3 -109l-12 -86h-795q-1 -22 -2.5 -51.5t7.5 -63.5t20.5 -68t37 -65t57.5 -55t81 -38.5t108 -14.5
q95 0 189.5 46t150.5 122zM311 553h672q17 126 -66 216.5t-219 90.5q-76 0 -142.5 -27.5t-108.5 -66.5t-74 -84t-46 -78t-16 -51zM612 1155l256 295h164l-317 -295h-103z" />
    <glyph glyph-name="ecircumflex" unicode="&#xea;" horiz-adv-x="1138" 
d="M944 254l80 -76q-166 -203 -438 -203q-215 0 -327 139.5t-81 360.5q29 213 183 354.5t360 141.5q71 0 131.5 -17.5t103.5 -48.5t76 -73.5t49.5 -91.5t23.5 -103t-3 -109l-12 -86h-795q-1 -22 -2.5 -51.5t7.5 -63.5t20.5 -68t37 -65t57.5 -55t81 -38.5t108 -14.5
q95 0 189.5 46t150.5 122zM311 553h672q17 126 -66 216.5t-219 90.5q-76 0 -142.5 -27.5t-108.5 -66.5t-74 -84t-46 -78t-16 -51zM438 1155l264 295h144l178 -295h-133l-135 221l-197 -221h-121z" />
    <glyph glyph-name="edieresis" unicode="&#xeb;" horiz-adv-x="1138" 
d="M944 254l80 -76q-166 -203 -438 -203q-215 0 -327 139.5t-81 360.5q29 213 183 354.5t360 141.5q71 0 131.5 -17.5t103.5 -48.5t76 -73.5t49.5 -91.5t23.5 -103t-3 -109l-12 -86h-795q-1 -22 -2.5 -51.5t7.5 -63.5t20.5 -68t37 -65t57.5 -55t81 -38.5t108 -14.5
q95 0 189.5 46t150.5 122zM311 553h672q17 126 -66 216.5t-219 90.5q-76 0 -142.5 -27.5t-108.5 -66.5t-74 -84t-46 -78t-16 -51zM465 1335q4 41 36.5 70t73.5 29t66.5 -29t20.5 -70q-6 -41 -39 -69.5t-74 -28.5t-65.5 28.5t-18.5 69.5zM854 1335q4 41 37 70t74 29t66 -29
t20 -70q-6 -41 -39 -69.5t-74 -28.5t-65.5 28.5t-18.5 69.5z" />
    <glyph glyph-name="igrave" unicode="&#xec;" horiz-adv-x="491" 
d="M184 0l133 946h123l-133 -946h-123zM356 1450l170 -295h-102l-231 295h163z" />
    <glyph glyph-name="iacute" unicode="&#xed;" horiz-adv-x="491" 
d="M184 0l133 946h123l-133 -946h-123zM289 1155l256 295h164l-318 -295h-102z" />
    <glyph glyph-name="icircumflex" unicode="&#xee;" horiz-adv-x="491" 
d="M184 0l133 946h123l-133 -946h-123zM115 1155l264 295h143l178 -295h-133l-135 221l-196 -221h-121z" />
    <glyph glyph-name="idieresis" unicode="&#xef;" horiz-adv-x="491" 
d="M184 0l133 946h123l-133 -946h-123zM141 1335q4 41 37 70t74 29t66 -29t20 -70q-6 -41 -39 -69.5t-74 -28.5t-65.5 28.5t-18.5 69.5zM530 1335q4 41 37 70t74 29t66 -29t20 -70q-6 -41 -39 -69.5t-74 -28.5t-65.5 28.5t-18.5 69.5z" />
    <glyph glyph-name="eth" unicode="&#xf0;" horiz-adv-x="1216" 
d="M479 1237l230 115q-90 93 -170 159l114 62q97 -79 172 -164l230 115l63 -62l-233 -116q357 -374 295 -822q-35 -251 -194.5 -400t-381.5 -149q-218 0 -337.5 140.5t-90.5 357.5q31 217 191 357.5t378 140.5q179 0 289 -113l4 4q-54 129 -126.5 240t-143.5 184l-236 -117z
M299 473q-22 -164 65.5 -275.5t256.5 -111.5t287.5 111.5t140.5 275.5q24 164 -63.5 275.5t-256.5 111.5t-287.5 -111.5t-142.5 -275.5z" />
    <glyph glyph-name="ntilde" unicode="&#xf1;" horiz-adv-x="1138" 
d="M164 0l96 680q4 35 14 138t13 128h123q-17 -148 -15 -166h6q50 82 145 136.5t206 54.5q86 0 148 -22.5t94.5 -61.5t51 -91t17.5 -111t-8 -122l-80 -563h-123l78 557q45 303 -195 303q-144 0 -250 -100t-133 -287l-65 -473h-123zM492 1190h-74q20 79 74 139q63 70 139 70
q57 0 145 -51q4 -2 18 -9.5t19 -10t16.5 -8.5t18.5 -8.5t16.5 -6t18 -4.5t16.5 -1q41 0 70 29t43 70h73q-23 -87 -74 -148t-126 -61q-52 0 -148 49q-6 3 -22 11.5t-23 12t-20.5 9.5t-22.5 8.5t-20 5t-21 2.5q-80 0 -116 -98z" />
    <glyph glyph-name="ograve" unicode="&#xf2;" horiz-adv-x="1216" 
d="M176 473q31 217 191 357.5t378 140.5t337.5 -140.5t88.5 -357.5q-29 -217 -189 -357.5t-378 -140.5t-337.5 140.5t-90.5 357.5zM299 473q-22 -164 65.5 -275.5t256.5 -111.5t287.5 111.5t140.5 275.5q24 164 -63.5 275.5t-256.5 111.5t-287.5 -111.5t-142.5 -275.5z
M719 1450l170 -295h-103l-231 295h164z" />
    <glyph glyph-name="oacute" unicode="&#xf3;" horiz-adv-x="1216" 
d="M176 473q31 217 191 357.5t378 140.5t337.5 -140.5t88.5 -357.5q-29 -217 -189 -357.5t-378 -140.5t-337.5 140.5t-90.5 357.5zM299 473q-22 -164 65.5 -275.5t256.5 -111.5t287.5 111.5t140.5 275.5q24 164 -63.5 275.5t-256.5 111.5t-287.5 -111.5t-142.5 -275.5z
M651 1155l256 295h164l-317 -295h-103z" />
    <glyph glyph-name="ocircumflex" unicode="&#xf4;" horiz-adv-x="1216" 
d="M176 473q31 217 191 357.5t378 140.5t337.5 -140.5t88.5 -357.5q-29 -217 -189 -357.5t-378 -140.5t-337.5 140.5t-90.5 357.5zM299 473q-22 -164 65.5 -275.5t256.5 -111.5t287.5 111.5t140.5 275.5q24 164 -63.5 275.5t-256.5 111.5t-287.5 -111.5t-142.5 -275.5z
M477 1155l264 295h144l178 -295h-133l-135 221l-197 -221h-121z" />
    <glyph glyph-name="otilde" unicode="&#xf5;" horiz-adv-x="1216" 
d="M176 473q31 217 191 357.5t378 140.5t337.5 -140.5t88.5 -357.5q-29 -217 -189 -357.5t-378 -140.5t-337.5 140.5t-90.5 357.5zM299 473q-22 -164 65.5 -275.5t256.5 -111.5t287.5 111.5t140.5 275.5q24 164 -63.5 275.5t-256.5 111.5t-287.5 -111.5t-142.5 -275.5z
M530 1190h-73q21 81 73 139q63 70 140 70q57 0 145 -51q4 -2 18 -9.5t19 -10t16.5 -8.5t18.5 -8.5t16.5 -6t18 -4.5t16.5 -1q41 0 70 29t43 70h73q-23 -87 -74 -148t-126 -61q-52 0 -148 49q-6 3 -22 11.5t-23 12t-20.5 9.5t-22.5 8.5t-20 5t-21 2.5q-81 0 -117 -98z" />
    <glyph glyph-name="odieresis" unicode="&#xf6;" horiz-adv-x="1216" 
d="M176 473q31 217 191 357.5t378 140.5t337.5 -140.5t88.5 -357.5q-29 -217 -189 -357.5t-378 -140.5t-337.5 140.5t-90.5 357.5zM299 473q-22 -164 65.5 -275.5t256.5 -111.5t287.5 111.5t140.5 275.5q24 164 -63.5 275.5t-256.5 111.5t-287.5 -111.5t-142.5 -275.5z
M504 1335q4 41 36.5 70t73.5 29t66 -29t20 -70q-6 -41 -38.5 -69.5t-73.5 -28.5t-65.5 28.5t-18.5 69.5zM893 1335q4 41 37 70t74 29t66 -29t20 -70q-6 -41 -39 -69.5t-74 -28.5t-65.5 28.5t-18.5 69.5z" />
    <glyph glyph-name="divide" unicode="&#xf7;" horiz-adv-x="1363" 
d="M240 571l14 99h1044l-14 -99h-1044zM709 936q6 43 40.5 73.5t77.5 30.5t70 -30.5t21 -73.5t-41 -74t-78 -31t-69.5 31t-20.5 74zM621 305q6 44 40.5 73.5t77.5 31.5q43 0 69.5 -31t20.5 -74t-40.5 -73.5t-77.5 -30.5t-69.5 30.5t-20.5 73.5z" />
    <glyph glyph-name="oslash" unicode="&#xf8;" horiz-adv-x="1216" 
d="M80 4l164 146q-92 130 -68 323q31 217 191 357.5t378 140.5q187 0 306 -109l161 144l58 -60l-166 -145q95 -130 67 -328q-29 -217 -189 -357.5t-378 -140.5q-193 0 -307 111l-160 -141zM340 236l614 542q-85 82 -225 82q-169 0 -287.5 -111.5t-142.5 -275.5
q-19 -141 41 -237zM1008 715l-615 -545q81 -84 228 -84q169 0 287.5 111.5t140.5 275.5q22 148 -41 242z" />
    <glyph glyph-name="ugrave" unicode="&#xf9;" horiz-adv-x="1138" 
d="M1098 946l-97 -680q-6 -40 -15 -144.5t-11 -121.5h-123q16 144 14 166h-6q-50 -82 -144.5 -136.5t-205.5 -54.5q-86 0 -148 22.5t-94.5 61.5t-51 91t-17.5 111t8 122l80 563h123l-78 -557q-45 -303 194 -303q144 0 250 100t131 287l68 473h123zM680 1450l170 -295h-102
l-232 295h164z" />
    <glyph glyph-name="uacute" unicode="&#xfa;" horiz-adv-x="1138" 
d="M1098 946l-97 -680q-6 -40 -15 -144.5t-11 -121.5h-123q16 144 14 166h-6q-50 -82 -144.5 -136.5t-205.5 -54.5q-86 0 -148 22.5t-94.5 61.5t-51 91t-17.5 111t8 122l80 563h123l-78 -557q-45 -303 194 -303q144 0 250 100t131 287l68 473h123zM612 1155l256 295h164
l-317 -295h-103z" />
    <glyph glyph-name="ucircumflex" unicode="&#xfb;" horiz-adv-x="1138" 
d="M1098 946l-97 -680q-6 -40 -15 -144.5t-11 -121.5h-123q16 144 14 166h-6q-50 -82 -144.5 -136.5t-205.5 -54.5q-86 0 -148 22.5t-94.5 61.5t-51 91t-17.5 111t8 122l80 563h123l-78 -557q-45 -303 194 -303q144 0 250 100t131 287l68 473h123zM438 1155l264 295h144
l178 -295h-133l-135 221l-197 -221h-121z" />
    <glyph glyph-name="udieresis" unicode="&#xfc;" horiz-adv-x="1138" 
d="M1098 946l-97 -680q-6 -40 -15 -144.5t-11 -121.5h-123q16 144 14 166h-6q-50 -82 -144.5 -136.5t-205.5 -54.5q-86 0 -148 22.5t-94.5 61.5t-51 91t-17.5 111t8 122l80 563h123l-78 -557q-45 -303 194 -303q144 0 250 100t131 287l68 473h123zM465 1335q4 41 36.5 70
t73.5 29t66.5 -29t20.5 -70q-6 -41 -39 -69.5t-74 -28.5t-65.5 28.5t-18.5 69.5zM854 1335q4 41 37 70t74 29t66 -29t20 -70q-6 -41 -39 -69.5t-74 -28.5t-65.5 28.5t-18.5 69.5z" />
    <glyph glyph-name="yacute" unicode="&#xfd;" horiz-adv-x="948" 
d="M1051 946l-662 -1239q-104 -199 -289 -199q-46 0 -116 19l26 115q80 -23 109 -23q32 0 60 13.5t50 39t37 48.5t33 57l117 219l-252 950h137l201 -796l418 796h131zM518 1155l256 295h164l-317 -295h-103z" />
    <glyph glyph-name="thorn" unicode="&#xfe;" horiz-adv-x="1251" 
d="M72 -467l282 2015h123l-106 -768h4q67 93 179 142t226 49q218 0 337.5 -140.5t88.5 -357.5q-29 -217 -189 -357.5t-378 -140.5q-73 0 -141 20t-126 64t-85 107h-4l-88 -633h-123zM313 473q-22 -161 77 -274t265 -113q169 0 287.5 111.5t140.5 275.5q24 164 -63 275.5
t-256 111.5q-166 0 -297 -113t-154 -274z" />
    <glyph glyph-name="ydieresis" unicode="&#xff;" horiz-adv-x="948" 
d="M1051 946l-662 -1239q-104 -199 -289 -199q-46 0 -116 19l26 115q80 -23 109 -23q32 0 60 13.5t50 39t37 48.5t33 57l117 219l-252 950h137l201 -796l418 796h131zM371 1335q4 41 36.5 70t73.5 29t66 -29t20 -70q-6 -41 -38.5 -69.5t-73.5 -28.5t-65.5 28.5t-18.5 69.5z
M760 1335q4 41 36.5 70t73.5 29t66 -29t20 -70q-6 -41 -38.5 -69.5t-73.5 -28.5t-65.5 28.5t-18.5 69.5z" />
    <glyph glyph-name="dotlessi" unicode="&#x131;" horiz-adv-x="491" 
d="M184 0l133 946h123l-133 -946h-123z" />
    <glyph glyph-name="Lslash" unicode="&#x141;" horiz-adv-x="1024" 
d="M199 0l65 473l-166 -131l21 133l164 129l120 846h136l-105 -733l498 387l-19 -127l-497 -387l-66 -467h676l-16 -123h-811z" />
    <glyph glyph-name="lslash" unicode="&#x142;" horiz-adv-x="491" 
d="M184 0l95 664l-197 -175l18 138l197 174l104 747h123l-88 -624l197 176l-19 -137l-196 -175l-111 -788h-123z" />
    <glyph glyph-name="OE" unicode="&#x152;" horiz-adv-x="1933" 
d="M1286 688l-80 -565h623l-17 -123h-966q-145 0 -269.5 52.5t-211 145t-125.5 230t-17 297.5q20 140 80 259t147 203.5t196 144.5t228 89t242 29h885l-19 -123h-606l-71 -516h571l-18 -123h-572zM1071 123l170 1204h-160q-89 0 -180 -21.5t-181.5 -69.5t-164 -116.5
t-127 -170.5t-70.5 -224q-15 -109 1.5 -201t58 -156t98 -113t124 -77t132.5 -41.5t127 -13.5h172z" />
    <glyph glyph-name="oe" unicode="&#x153;" horiz-adv-x="1857" 
d="M1116 553h606q18 136 -45.5 221.5t-212.5 85.5q-137 0 -233.5 -88.5t-114.5 -218.5zM1829 442h-729q-27 -153 45.5 -254.5t232.5 -101.5q86 0 162 40t131 112l88 -70q-95 -104 -191 -148.5t-227 -44.5q-130 0 -218.5 57.5t-121.5 176.5h-4q-73 -113 -188.5 -173.5
t-251.5 -60.5q-203 0 -316.5 141t-84.5 357q31 216 185 357t357 141q284 0 373 -236q35 61 86 111t136.5 87.5t183.5 37.5q88 0 159.5 -26.5t124 -80t73.5 -143t5 -207.5zM279 473q-14 -103 16 -190.5t104 -142t179 -54.5q159 0 270 111t133 276q24 164 -56 275.5
t-239 111.5q-157 0 -270.5 -114t-136.5 -273z" />
    <glyph glyph-name="Scaron" unicode="&#x160;" horiz-adv-x="1138" 
d="M135 182l139 86q41 -90 120 -136t188 -46q139 0 242.5 78.5t121.5 206.5q9 65 -9.5 113t-57.5 78t-92 53t-112 42t-118 40t-110.5 52.5t-89 74t-53 110.5t-3.5 156q17 124 96 216t189 136.5t235 44.5q255 0 371 -182l-129 -84q-84 143 -262 143q-139 0 -243 -71.5
t-122 -202.5q-10 -70 8.5 -121.5t57.5 -82.5t91.5 -54.5t112 -41.5t118.5 -38t111 -50t89 -70.5t53 -107t4 -153.5q-27 -188 -174 -298t-334 -110q-313 0 -438 219zM1112 1835l-258 -295h-143l-183 295h127l138 -233l208 233h111z" />
    <glyph glyph-name="scaron" unicode="&#x161;" horiz-adv-x="872" 
d="M82 168l119 74q27 -73 96.5 -114.5t155.5 -41.5q85 0 157.5 48t83.5 126q7 46 -12.5 78.5t-57 49t-85.5 30.5t-99.5 23.5t-99 28.5t-83.5 44t-53.5 72.5t-8.5 111.5q19 129 126.5 201t235.5 72q244 0 307 -178l-119 -66q-27 67 -75 100t-129 33q-74 0 -144 -41.5
t-78 -109.5q-7 -46 13 -77t57 -46t85.5 -28t100 -21.5t99.5 -28t83.5 -46t52.5 -76t7 -118.5q-13 -94 -71 -162t-138.5 -99.5t-173.5 -31.5q-126 0 -219 49t-133 144zM926 1450l-260 -295h-144l-180 295h127l135 -233l211 233h111z" />
    <glyph glyph-name="Ydieresis" unicode="&#x178;" horiz-adv-x="1175" 
d="M520 0l88 625l-415 825h161l340 -688l547 688h152l-650 -825l-88 -625h-135zM537 1720q6 41 38.5 70t73.5 29t65.5 -29t18.5 -70t-38.5 -69.5t-73.5 -28.5t-65.5 28.5t-18.5 69.5zM926 1720q6 41 38.5 70t73.5 29t65.5 -29t18.5 -70t-38.5 -69.5t-73.5 -28.5t-65.5 28.5
t-18.5 69.5z" />
    <glyph glyph-name="Zcaron" unicode="&#x17d;" horiz-adv-x="1138" 
d="M47 0l14 106l1020 1221h-835l18 123h1010l-17 -111l-1026 -1216h877l-16 -123h-1045zM1112 1835l-258 -295h-143l-183 295h127l138 -233l208 233h111z" />
    <glyph glyph-name="zcaron" unicode="&#x17e;" horiz-adv-x="872" 
d="M55 0l11 74l673 762h-538l16 110h709l-11 -74l-671 -761h590l-17 -111h-762zM926 1450l-260 -295h-144l-180 295h127l135 -233l211 233h111z" />
    <glyph glyph-name="florin" unicode="&#x192;" 
d="M930 858l-15 -98h-239l-260 -801q-85 -254 -328 -254q-102 0 -156 49l76 96q37 -34 103 -34q78 0 126 55t85 172l231 717h-221l14 98h240l104 316q18 59 44.5 108.5t66 95t97 71.5t126.5 26q101 0 176 -62l-78 -92q-57 43 -112 43q-136 0 -197 -184l-104 -322h221z" />
    <glyph glyph-name="circumflex" unicode="&#x2c6;" horiz-adv-x="491" 
d="M115 1155l264 295h143l178 -295h-133l-135 221l-196 -221h-121z" />
    <glyph glyph-name="caron" unicode="&#x2c7;" horiz-adv-x="491" 
d="M735 1450l-260 -295h-143l-180 295h127l135 -233l211 233h110z" />
    <glyph glyph-name="uni02C9" unicode="&#x2c9;" horiz-adv-x="491" 
d="M705 1339l-15 -98h-540l14 98h541z" />
    <glyph glyph-name="breve" unicode="&#x2d8;" horiz-adv-x="491" 
d="M156 1450h86q0 -79 49.5 -119.5t132.5 -40.5q92 0 147 36t88 124h86q-32 -122 -122 -190t-213 -68t-194.5 69t-59.5 189z" />
    <glyph glyph-name="dotaccent" unicode="&#x2d9;" horiz-adv-x="491" 
d="M342 1335q4 41 37 70t74 29t66 -29t20 -70q-6 -41 -39 -69.5t-74 -28.5t-65.5 28.5t-18.5 69.5z" />
    <glyph glyph-name="ring" unicode="&#x2da;" horiz-adv-x="491" 
d="M242 1329q11 78 76.5 136.5t144.5 58.5q78 0 124.5 -59.5t35.5 -137.5q-11 -76 -74.5 -134t-140.5 -58q-79 0 -128 57.5t-38 136.5zM549 1329q8 52 -20 86.5t-78 34.5q-51 0 -89.5 -35.5t-46.5 -87.5q-7 -51 22 -85t79 -34q51 0 89 35t44 86z" />
    <glyph glyph-name="ogonek" unicode="&#x2db;" horiz-adv-x="491" 
d="M303 -297l27 -78q-81 -67 -183 -67q-83 0 -129 45.5t-36 122.5q18 130 219 274h92q-62 -42 -118.5 -110t-65.5 -138q-13 -96 73 -96q67 0 121 47z" />
    <glyph glyph-name="tilde" unicode="&#x2dc;" horiz-adv-x="491" 
d="M168 1190h-74q20 79 74 139q63 70 139 70q58 0 146 -51q4 -2 20.5 -11l22 -12t19 -9.5t21.5 -8.5t19 -4.5t20 -2.5q41 0 70 29t43 70h74q-23 -87 -74.5 -148t-126.5 -61q-51 0 -147 49q-6 3 -22 11.5t-23 12t-20.5 9.5t-22.5 8.5t-20 5t-21 2.5q-81 0 -117 -98z" />
    <glyph glyph-name="hungarumlaut" unicode="&#x2dd;" horiz-adv-x="491" 
d="M139 1155l256 295h164l-317 -295h-103zM438 1155l256 295h164l-317 -295h-103z" />
    <glyph glyph-name="uni03A9" unicode="&#x3a9;" horiz-adv-x="1384" 
d="M410 102v7q-101 112 -152 284t-22 381q22 155 84.5 285.5t152 219t201.5 138t231 49.5q163 0 278 -92.5t161 -248t20 -343.5q-32 -216 -135.5 -393.5t-231.5 -279.5v-7h297l-14 -102h-449l11 76q141 94 253 274t144 408q12 68 8 140t-16.5 139t-42.5 126.5t-70 104
t-99 70.5t-130 26q-134 0 -249 -81.5t-188.5 -219.5t-97.5 -307q-31 -215 32.5 -403.5t172.5 -276.5l-10 -76h-449l15 102h295z" />
    <glyph glyph-name="uni03BC" unicode="&#x3bc;" horiz-adv-x="1138" 
d="M1098 946l-97 -680q-6 -40 -15 -144.5t-11 -121.5h-123q16 144 14 166h-6q-50 -82 -144.5 -136.5t-205.5 -54.5q-152 0 -227 78l-74 -520h-121l199 1413h123l-78 -557q-45 -303 194 -303q144 0 250 100t131 287l68 473h123z" />
    <glyph glyph-name="pi" unicode="&#x3c0;" horiz-adv-x="1085" 
d="M1163 967h-157l-95 -670q-27 -202 -12 -297h-117q-22 58 11 285l94 682h-369q-42 -231 -126.5 -530t-155.5 -437h-117q77 158 158 446.5t120 520.5q-144 0 -219 -27l-12 82q90 51 274 51h752z" />
    <glyph glyph-name="endash" unicode="&#x2013;" horiz-adv-x="1024" 
d="M61 430l15 111h1024l-15 -111h-1024z" />
    <glyph glyph-name="emdash" unicode="&#x2014;" horiz-adv-x="2048" 
d="M61 430l15 111h2048l-15 -111h-2048z" />
    <glyph glyph-name="quoteleft" unicode="&#x2018;" horiz-adv-x="532" 
d="M610 1450l-198 -467h-148l223 467h123z" />
    <glyph glyph-name="quoteright" unicode="&#x2019;" horiz-adv-x="532" 
d="M264 983l197 467h149l-225 -467h-121z" />
    <glyph glyph-name="quotesinglbase" unicode="&#x201a;" horiz-adv-x="532" 
d="M88 -283l195 467h149l-223 -467h-121z" />
    <glyph glyph-name="quotedblleft" unicode="&#x201c;" 
d="M698 1450l-196 -467h-150l226 467h120zM1055 1450l-197 -467h-149l225 467h121z" />
    <glyph glyph-name="quotedblright" unicode="&#x201d;" 
d="M709 983l196 467h150l-226 -467h-120zM352 983l197 467h149l-225 -467h-121z" />
    <glyph glyph-name="quotedblbase" unicode="&#x201e;" 
d="M532 -283l195 467h150l-224 -467h-121zM176 -283l195 467h149l-223 -467h-121z" />
    <glyph glyph-name="dagger" unicode="&#x2020;" 
d="M434 -258l170 1202h-393l14 98h393l58 408h123l-58 -408h394l-15 -98h-393l-170 -1202h-123z" />
    <glyph glyph-name="daggerdbl" unicode="&#x2021;" 
d="M434 -258l58 408h-394l15 98h393l98 696h-393l14 98h393l58 408h123l-58 -408h394l-15 -98h-393l-98 -696h393l-14 -98h-394l-57 -408h-123z" />
    <glyph glyph-name="bullet" unicode="&#x2022;" horiz-adv-x="1024" 
d="M252 725q22 151 142.5 256.5t271.5 105.5t242 -105.5t69 -256.5t-142.5 -257t-271.5 -106t-242 106t-69 257z" />
    <glyph glyph-name="ellipsis" unicode="&#x2026;" horiz-adv-x="2048" 
d="M256 86q6 41 39 69.5t74 28.5t65.5 -28.5t18.5 -69.5t-39 -69.5t-74 -28.5t-65.5 28.5t-18.5 69.5zM938 86q6 41 39 69.5t74 28.5t65.5 -28.5t18.5 -69.5t-39 -69.5t-74 -28.5t-65.5 28.5t-18.5 69.5zM1620 86q6 41 39 69.5t74 28.5t65.5 -28.5t18.5 -69.5t-39 -69.5
t-74 -28.5t-65.5 28.5t-18.5 69.5z" />
    <glyph glyph-name="perthousand" unicode="&#x2030;" horiz-adv-x="2009" 
d="M668 289q19 129 123 221t233 92t209 -92t61 -221t-124 -221.5t-234 -92.5t-208 92.5t-60 221.5zM766 289q-12 -89 41.5 -152t142.5 -63t161.5 63t84.5 152t-41.5 152t-142.5 63t-161.5 -63t-84.5 -152zM1370 289q19 129 123 221t233 92t209.5 -92t61.5 -221
t-124.5 -221.5t-234.5 -92.5t-208 92.5t-60 221.5zM1468 289q-12 -89 42 -152t143 -63t161 63t84 152t-41.5 152t-142.5 63t-161.5 -63t-84.5 -152zM217 1161q17 129 122 221.5t234 92.5t208.5 -92.5t62.5 -221.5q-19 -129 -124.5 -221t-234.5 -92t-208 92t-60 221z
M315 1161q-12 -89 42 -152t143 -63t161 63t84 152t-42.5 152t-143.5 63t-160.5 -63t-83.5 -152zM133 -12l1149 1532l86 -58l-1151 -1532z" />
    <glyph glyph-name="guilsinglleft" unicode="&#x2039;" horiz-adv-x="645" 
d="M420 70l-223 415l340 416l77 -59l-288 -357l192 -360z" />
    <glyph glyph-name="guilsinglright" unicode="&#x203a;" horiz-adv-x="645" 
d="M362 901l222 -416l-338 -415l-78 59l287 356l-191 361z" />
    <glyph glyph-name="fraction" unicode="&#x2044;" horiz-adv-x="344" 
d="M-344 -12l1149 1532l86 -58l-1151 -1532z" />
    <glyph glyph-name="Euro" unicode="&#x20ac;" 
d="M1028 162q-63 -80 -169 -133.5t-210 -53.5q-197 0 -298 134t-99 389h-148l41 96h113q3 58 12 123q3 18 31 157h-145l45 97h129q36 110 87 197.5t107.5 144t122 94t128.5 53t130 15.5q86 0 162 -19.5t121 -44.5l-53 -115q-113 68 -228 68q-154 0 -269 -100t-179 -293h555
l-39 -97h-545q-21 -89 -31 -163q-9 -61 -12 -117h479l-39 -96h-444q0 -198 69 -308t214 -110q84 0 161 41t123 104z" />
    <glyph glyph-name="afii61289" unicode="&#x2113;" horiz-adv-x="925" 
d="M854 276l55 -49q-156 -241 -383 -241q-81 0 -138 32t-84 86.5t-37.5 127t1.5 153.5l4 29q-26 -20 -125 -99l-30 74q137 110 174 143l80 578q15 108 44 193.5t64 139t77.5 88t83 48.5t83.5 14q113 0 160 -89t26 -232q-49 -352 -510 -766l-10 -68q-25 -183 25.5 -269.5
t148.5 -86.5q85 0 161.5 57.5t129.5 136.5zM485 1120l-69 -487q83 82 146.5 155t121 154t93 163.5t46.5 162.5q33 229 -114 229q-68 0 -132.5 -92t-91.5 -285z" />
    <glyph glyph-name="trademark" unicode="&#x2122;" horiz-adv-x="2027" 
d="M530 606l105 746h-273l15 98h655l-14 -98h-273l-104 -746h-111zM1065 606l119 844h176l170 -672l360 672h170l-118 -844h-111l102 740h-4l-393 -740h-66l-188 740h-4l-102 -740h-111z" />
    <glyph glyph-name="Omega" unicode="&#x2126;" horiz-adv-x="1384" 
d="M410 102v7q-101 112 -152 284t-22 381q22 155 84.5 285.5t152 219t201.5 138t231 49.5q163 0 278 -92.5t161 -248t20 -343.5q-32 -216 -135.5 -393.5t-231.5 -279.5v-7h297l-14 -102h-449l11 76q141 94 253 274t144 408q12 68 8 140t-16.5 139t-42.5 126.5t-70 104
t-99 70.5t-130 26q-134 0 -249 -81.5t-188.5 -219.5t-97.5 -307q-31 -215 32.5 -403.5t172.5 -276.5l-10 -76h-449l15 102h295z" />
    <glyph glyph-name="estimated" unicode="&#x212e;" horiz-adv-x="2015" 
d="M1944 705h-1350q-10 0 -10 -11v-407q0 -26 18 -47q101 -104 232 -163t278 -59q157 0 296.5 66t240.5 182h118q-112 -133 -285.5 -211t-371.5 -78q-169 0 -323 59t-265 159t-177 239t-66 291q0 153 66 291.5t177 239t265 160t323 59.5q170 0 324.5 -59.5t266 -160
t177.5 -239t66 -291.5v-20zM1636 758v409q0 29 -18 50q-101 100 -231.5 156.5t-274.5 56.5q-145 0 -276 -58.5t-232 -161.5q-20 -20 -20 -51v-401q0 -4 3 -9.5t7 -5.5h1034q8 0 8 15z" />
    <glyph glyph-name="partialdiff" unicode="&#x2202;" horiz-adv-x="1042" 
d="M395 1417l-33 90q149 111 330 111q93 0 169.5 -45t133.5 -140t74.5 -241.5t-8.5 -349.5q-35 -252 -117 -443t-210.5 -302t-287.5 -111q-71 0 -127.5 25t-92 69t-57.5 103.5t-25 128t6 143.5q33 234 175.5 381t309.5 147q63 0 118 -20.5t90 -52.5t57 -63t32 -59h2
q10 43 14 93q40 282 -43 458.5t-237 176.5q-146 0 -273 -99zM471 88h2q93 0 179.5 78t149 203.5t99.5 281.5q-8 39 -28 78t-51.5 74.5t-79 57.5t-103.5 22q-126 0 -235.5 -124.5t-135.5 -299.5q-23 -166 32.5 -268.5t170.5 -102.5z" />
    <glyph glyph-name="Delta" unicode="&#x2206;" horiz-adv-x="1239" 
d="M63 0l13 88l688 1397h135l291 -1395l-12 -90h-1115zM199 100h864l-178 846q-8 48 -39.5 187.5t-36.5 193.5h-8q-18 -45 -82 -174t-86 -178z" />
    <glyph glyph-name="product" unicode="&#x220f;" horiz-adv-x="1540" 
d="M1487 1331h-213v-1530h-119v1530h-569v-1530h-119v1530h-211v113h1231v-113z" />
    <glyph glyph-name="summation" unicode="&#x2211;" horiz-adv-x="1267" 
d="M1225 -201h-975v86l532 733l-508 740v86h920v-107h-752v-8l480 -692l-516 -711v-8h819v-119z" />
    <glyph glyph-name="minus" unicode="&#x2212;" horiz-adv-x="1363" 
d="M240 571l14 99h1044l-14 -99h-1044z" />
    <glyph glyph-name="uni2215" unicode="&#x2215;" horiz-adv-x="344" 
d="M-344 -12l1149 1532l86 -58l-1151 -1532z" />
    <glyph glyph-name="uni2219" unicode="&#x2219;" horiz-adv-x="532" 
d="M260 651q4 41 37 70t74 29t66 -29t20 -70q-6 -41 -39 -69.5t-74 -28.5t-65.5 28.5t-18.5 69.5z" />
    <glyph glyph-name="radical" unicode="&#x221a;" horiz-adv-x="1310" 
d="M1305 1714l-428 -2029h-113l-318 977l-145 -56l-27 80l252 96l258 -784q6 -30 19 -88t14 -62l2 -2q5 50 25 146l366 1722h95z" />
    <glyph glyph-name="infinity" unicode="&#x221e;" horiz-adv-x="1656" 
d="M1556 602v-2q0 -135 -88 -221t-208 -86q-90 0 -171.5 56t-193.5 181q-48 -55 -82 -89t-83 -72.5t-101.5 -57t-110.5 -18.5q-119 0 -205 88t-86 213q0 132 86.5 219.5t218.5 87.5q54 0 105 -19t98 -56t84 -74t82 -90q97 109 144 148q109 91 229 91q127 0 204.5 -83
t77.5 -216zM530 375h2q31 0 64 11.5t56 23.5t57 42t47.5 43.5t49.5 51.5t42 45q-34 41 -47 56t-45 50t-53.5 50.5t-53 36t-64 28.5t-67.5 8q-93 0 -147 -66.5t-54 -162.5q0 -92 59.5 -154.5t153.5 -62.5zM1264 821h-2q-38 0 -76.5 -15t-74.5 -44t-61 -52.5t-59 -61
t-45 -48.5q115 -126 180 -175.5t140 -49.5q92 0 147 66.5t55 152.5q0 106 -57 166.5t-147 60.5z" />
    <glyph glyph-name="integral" unicode="&#x222b;" horiz-adv-x="892" 
d="M860 1733l-24 -88q-28 20 -70 20q-62 0 -100 -49q-38 -47 -53 -133t-15 -242q0 -158 12.5 -523.5t12.5 -531.5q0 -286 -88 -417q-62 -95 -181 -95q-67 0 -121 33l25 90q59 -22 88 -22q56 0 92 49q70 95 70 364q0 167 -12.5 536t-12.5 529q0 168 23 268.5t78 161.5
q70 76 174 76q28 0 57.5 -8t44.5 -18z" />
    <glyph glyph-name="approxequal" unicode="&#x2248;" horiz-adv-x="1220" 
d="M1073 868l55 -45q-89 -186 -247 -186q-55 0 -100.5 18.5t-129.5 65.5q-117 67 -184 67q-63 0 -108.5 -39t-88.5 -110l-57 43q45 89 113.5 138.5t152.5 49.5q34 0 70 -10.5t54.5 -19t55.5 -30.5t41 -24t24 -13t24.5 -13.5t21 -10.5t23 -10.5t21 -7.5t24 -7t23 -3.5
t26.5 -1.5q58 0 101.5 36t84.5 113zM1073 541l55 -45q-90 -187 -247 -187q-55 0 -100.5 18.5t-129.5 65.5q-43 24 -64 34.5t-56 22t-64 11.5q-64 0 -108 -39t-89 -111l-57 43q45 90 113.5 139.5t152.5 49.5q27 0 53.5 -5t52 -16t41.5 -19t41.5 -23t32.5 -19q5 -3 26.5 -15.5
t27.5 -15t24 -12t27 -12t24.5 -7.5t30 -6.5t29.5 -1.5q57 0 98.5 36t85.5 114z" />
    <glyph glyph-name="notequal" unicode="&#x2260;" horiz-adv-x="1247" 
d="M922 1016l-91 -197h314v-86h-348l-133 -293h481v-84h-516l-107 -231l-67 31l92 200h-299v84h334l133 293h-467v86h502l104 228z" />
    <glyph glyph-name="lessequal" unicode="&#x2264;" horiz-adv-x="1267" 
d="M1161 209l-880 450v89l878 450v-104l-784 -385v-4l786 -392v-104zM1165 37h-895v88h895v-88z" />
    <glyph glyph-name="greaterequal" unicode="&#x2265;" horiz-adv-x="1267" 
d="M283 1198l878 -450v-89l-878 -450v104l784 387v7l-784 387v104zM1165 37h-893v88h893v-88z" />
    <glyph glyph-name="lozenge" unicode="&#x25ca;" horiz-adv-x="1312" 
d="M1204 721l-395 -805h-100l-392 805l396 809h100zM1090 719l-291 594q-22 52 -37 106h-6q-15 -59 -37 -106l-289 -588l293 -598q22 -50 35 -104h6q9 42 35 104z" />
    </font>
</defs>
</svg>
